<?xml version="1.0" standalone="no"?>
<!DOCTYPE svg PUBLIC "-//W3C//DTD SVG 1.1//EN" "http://www.w3.org/Graphics/SVG/1.1/DTD/svg11.dtd" >
<svg xmlns="http://www.w3.org/2000/svg">
<metadata>Generated by IcoMoon</metadata>
<defs>
<font id="pe-icon-set-weather" horiz-adv-x="1024">
<font-face units-per-em="1024" ascent="960" descent="-64" />
<missing-glyph horiz-adv-x="1024" />
<glyph unicode="&#x20;" horiz-adv-x="512" d="" />
<glyph unicode="&#xe900;" glyph-name="blizzard-f" horiz-adv-x="896" d="M702.4 744c-3.2 0-4.8 0-8 0-40 89.6-128 152-232 152-128 0-232-94.4-251.2-219.2-14.4 4.8-32 8-48 8-89.6 0-163.2-75.2-163.2-166.4s73.6-166.4 164.8-166.4h536c0 0 1.6 0 1.6 0 107.2 0 193.6 88 193.6 196.8s-86.4 195.2-193.6 195.2zM288 224c0 17.6-14.4 32-32 32v0c0 17.6-14.4 32-32 32s-32-14.4-32-32c-17.6 0-32-14.4-32-32s14.4-32 32-32c0-17.6 14.4-32 32-32s32 14.4 32 32v0c17.6 0 32 14.4 32 32zM512 224c0 17.6-14.4 32-32 32v0c0 17.6-14.4 32-32 32v0c-17.6 0-32-14.4-32-32v0c-17.6 0-32-14.4-32-32s14.4-32 32-32v0 0c0-17.6 14.4-32 32-32v0c17.6 0 32 14.4 32 32 17.6 0 32 14.4 32 32zM374.4 96v0 0c0 17.6-14.4 32-32 32v0c-17.6 0-32-14.4-32-32v0 0c-17.6 0-32-14.4-32-32s14.4-32 32-32v0c0-17.6 14.4-32 32-32v0c17.6 0 32 14.4 32 32v0c17.6 0 32 14.4 32 32s-14.4 32-32 32zM585.6 96v0c0 17.6-14.4 32-32 32s-32-14.4-32-32v0c-17.6 0-32-14.4-32-32s14.4-32 32-32v0c0-17.6 14.4-32 32-32s32 14.4 32 32v0c17.6 0 32 14.4 32 32s-14.4 32-32 32zM704 256c0 17.6-14.4 32-32 32s-32-14.4-32-32v0c-17.6 0-32-14.4-32-32s14.4-32 32-32c0-17.6 14.4-32 32-32s32 14.4 32 32v0c17.6 0 32 14.4 32 32s-14.4 32-32 32z" />
<glyph unicode="&#xe901;" glyph-name="blizzard" horiz-adv-x="960" d="M745.6 776c-49.6 92.8-145.6 152-251.2 152-129.6 0-241.6-89.6-275.2-212.8-8 1.6-16 1.6-22.4 1.6-108.8 0-196.8-89.6-196.8-198.4s88-198.4 196.8-198.4h537.6c124.8 0 225.6 102.4 225.6 228.8 0 121.6-94.4 220.8-214.4 227.2zM736 384h-539.2c-73.6 0-132.8 60.8-132.8 134.4s59.2 134.4 132.8 134.4c12.8 0 25.6-1.6 38.4-6.4l35.2-11.2 4.8 36.8c16 108.8 110.4 192 219.2 192 86.4 0 166.4-52.8 201.6-132.8l9.6-19.2 25.6 1.6c0 0 1.6 0 1.6 0 89.6 0 161.6-73.6 161.6-164.8 1.6-91.2-70.4-164.8-158.4-164.8zM256 256c-17.6 0-32-14.4-32-32-17.6 0-32-14.4-32-32s14.4-32 32-32c0-17.6 14.4-32 32-32s32 14.4 32 32v0c17.6 0 32 14.4 32 32s-14.4 32-32 32v0c0 17.6-14.4 32-32 32zM480 256v0c-17.6 0-32-14.4-32-32v0c-17.6 0-32-14.4-32-32s14.4-32 32-32v0 0c0-17.6 14.4-32 32-32 0 0 0 0 0 0 17.6 0 32 14.4 32 32 17.6 0 32 14.4 32 32s-14.4 32-32 32v0c0 17.6-14.4 32-32 32zM374.4 96v0c-17.6 0-32-14.4-32-32v0c-17.6 0-32-14.4-32-32s14.4-32 32-32v0c0-17.6 14.4-32 32-32v0c17.6 0 32 14.4 32 32v0c17.6 0 32 14.4 32 32s-14.4 32-32 32v0 0c0 17.6-14.4 32-32 32zM617.6 64v0c0 17.6-14.4 32-32 32s-32-14.4-32-32v0c-17.6 0-32-14.4-32-32s14.4-32 32-32v0c0-17.6 14.4-32 32-32s32 14.4 32 32v0c17.6 0 32 14.4 32 32s-14.4 32-32 32zM672 160c0-17.6 14.4-32 32-32s32 14.4 32 32v0c17.6 0 32 14.4 32 32s-14.4 32-32 32c0 17.6-14.4 32-32 32s-32-14.4-32-32v0c-17.6 0-32-14.4-32-32s14.4-32 32-32z" />
<glyph unicode="&#xe902;" glyph-name="cloud-down-f" horiz-adv-x="960" d="M630.4 300.8c-12.8 12.8-32 12.8-44.8 0l-73.6-73.6v275.2c0 17.6-14.4 32-32 32s-32-14.4-32-32v-275.2l-73.6 73.6c-12.8 12.8-32 12.8-44.8 0s-12.8-32 0-44.8l150.4-150.4 150.4 150.4c12.8 12.8 12.8 32 0 44.8zM752 630.4c-3.2 0-4.8 0-8 0-43.2 94.4-137.6 160-248 160-136 0-249.6-100.8-268.8-232-16 4.8-33.6 8-51.2 8-97.6 0-176-78.4-176-176s78.4-176 176-176h104c-16 17.6-24 40-24 64 0 25.6 9.6 49.6 28.8 67.2 17.6 17.6 41.6 28.8 67.2 28.8 11.2 0 22.4-1.6 32-4.8v132.8c0 52.8 43.2 96 96 96s96-43.2 96-96v-132.8c9.6 3.2 20.8 4.8 32 4.8 25.6 0 49.6-9.6 67.2-28.8 17.6-17.6 28.8-41.6 28.8-67.2 0-24-8-46.4-24-64h70.4c0 0 1.6 0 1.6 0 115.2 0 208 92.8 208 208s-92.8 208-208 208z" />
<glyph unicode="&#xe903;" glyph-name="cloud-down" d="M795.2 646.4c-52.8 97.6-155.2 160-267.2 160-137.6 0-259.2-94.4-292.8-225.6-8 1.6-17.6 1.6-27.2 1.6-115.2 0-208-92.8-208-208s92.8-208 208-208h80c17.6 0 32 14.4 32 32s-14.4 32-32 32h-80c-80 0-144 64-144 144s64 144 144 144c14.4 0 28.8-1.6 41.6-6.4l35.2-11.2 4.8 36.8c17.6 116.8 120 204.8 236.8 204.8 94.4 0 180.8-56 219.2-142.4l9.6-19.2 25.6 1.6c1.6 0 1.6 0 3.2 0 97.6 0 176-78.4 176-176 0-96-78.4-176-176-176h-48c-17.6 0-32-14.4-32-32s14.4-32 32-32h48c132.8 0 240 107.2 240 240 0 128-100.8 233.6-228.8 240zM617.6 284.8l-73.6-73.6v275.2c0 17.6-14.4 32-32 32s-32-14.4-32-32v-275.2l-73.6 73.6c-12.8 12.8-32 12.8-44.8 0s-12.8-32 0-44.8l150.4-150.4 150.4 150.4c12.8 12.8 12.8 32 0 44.8s-32 12.8-44.8 0z" />
<glyph unicode="&#xe904;" glyph-name="cloud-refresh-f" horiz-adv-x="960" d="M760 377.6c-14.4 9.6-35.2 6.4-44.8-9.6l-11.2-16c-28.8 89.6-113.6 155.2-212.8 155.2-123.2 0-224-100.8-224-224s100.8-224 224-224c59.2 0 116.8 24 158.4 65.6 12.8 12.8 12.8 32 0 44.8s-32 12.8-44.8 0c-30.4-30.4-70.4-46.4-113.6-46.4-88 0-160 72-160 160s72 160 160 160c67.2 0 124.8-41.6 148.8-100.8l-19.2 17.6c-12.8 11.2-33.6 11.2-44.8-1.6s-11.2-33.6 1.6-44.8l110.4-99.2 80 120c11.2 12.8 8 32-8 43.2zM752 676.8c-3.2 0-4.8 0-8 0-43.2 94.4-137.6 160-248 160-136 0-249.6-100.8-268.8-232-16 4.8-33.6 8-51.2 8-97.6 0-176-78.4-176-176s78.4-176 176-176h28.8c0 8-1.6 14.4-1.6 22.4 0 158.4 129.6 288 288 288 97.6 0 185.6-48 238.4-126.4 4.8 0 8 1.6 12.8 1.6 19.2 0 36.8-4.8 52.8-16 20.8-14.4 35.2-35.2 41.6-60.8 4.8-25.6 0-51.2-14.4-72l-20.8-30.4c3.2 1.6 6.4 1.6 9.6 3.2 84.8 30.4 148.8 104 148.8 198.4 0 115.2-92.8 208-208 208z" />
<glyph unicode="&#xe905;" glyph-name="cloud-refresh" d="M208 212.8c-115.2 0-208 92.8-208 208s92.8 208 208 208c9.6 0 17.6 0 27.2-1.6 33.6 131.2 155.2 225.6 292.8 225.6 112 0 214.4-62.4 267.2-160 126.4-6.4 228.8-112 228.8-240 0-107.2-68.8-198.4-169.6-230.4-17.6-4.8-35.2 4.8-40 20.8-4.8 17.6 4.8 35.2 20.8 40 73.6 22.4 124.8 91.2 124.8 168 0 97.6-78.4 176-176 176-1.6 0-1.6 0-3.2 0s-3.2 0-4.8 0h-20.8l-8 19.2c-38.4 86.4-124.8 142.4-219.2 142.4-118.4 0-219.2-88-236.8-204.8l-4.8-36.8-35.2 11.2c-14.4 4.8-27.2 6.4-41.6 6.4-80 0-144-64-144-144s64-144 144-144c17.6 0 32-14.4 32-32s-16-32-33.6-32zM524.8 43.2c-123.2 0-224 100.8-224 224s100.8 224 224 224 224-100.8 224-224c0-8 0-17.6-1.6-25.6-1.6-17.6-17.6-30.4-35.2-28.8s-30.4 17.6-28.8 35.2c0 6.4 1.6 12.8 1.6 17.6 0 88-72 160-160 160s-160-72-160-160c0-88 72-160 160-160 43.2 0 83.2 16 113.6 46.4 12.8 12.8 32 12.8 44.8 0s12.8-32 0-44.8c-43.2-41.6-99.2-64-158.4-64zM721.6 196.8l-110.4 99.2c-12.8 11.2-14.4 32-1.6 44.8 11.2 12.8 32 14.4 44.8 1.6l54.4-49.6 38.4 59.2c9.6 14.4 30.4 19.2 44.8 9.6s19.2-30.4 9.6-44.8l-80-120z" />
<glyph unicode="&#xe906;" glyph-name="cloud-up-f" horiz-adv-x="960" d="M630.4 390.4l-150.4 150.4-150.4-150.4c-12.8-12.8-12.8-32 0-44.8s32-12.8 44.8 0l73.6 73.6v-275.2c0-17.6 14.4-32 32-32s32 14.4 32 32v275.2l73.6-73.6c6.4-6.4 14.4-9.6 22.4-9.6s16 3.2 22.4 9.6c12.8 12.8 12.8 32 0 44.8zM752 624c-3.2 0-4.8 0-8 0-43.2 94.4-137.6 160-248 160-136 0-249.6-100.8-268.8-232-16 4.8-33.6 8-51.2 8-97.6 0-176-78.4-176-176s78.4-176 176-176h208v68.8c-9.6-3.2-20.8-4.8-32-4.8-25.6 0-49.6 9.6-67.2 28.8-19.2 17.6-28.8 41.6-28.8 67.2s9.6 49.6 28.8 67.2l195.2 195.2 195.2-195.2c17.6-17.6 28.8-41.6 28.8-67.2s-9.6-49.6-28.8-67.2c-17.6-19.2-41.6-28.8-67.2-28.8-11.2 0-22.4 1.6-32 4.8v-68.8h174.4c0 0 1.6 0 1.6 0 115.2 0 208 92.8 208 208s-92.8 208-208 208z" />
<glyph unicode="&#xe907;" glyph-name="cloud-up" d="M795.2 640c-51.2 97.6-155.2 160-267.2 160-137.6 0-259.2-94.4-292.8-225.6-9.6 1.6-17.6 1.6-27.2 1.6-115.2 0-208-92.8-208-208s92.8-208 208-208h144c17.6 0 32 14.4 32 32s-14.4 32-32 32h-144c-80 0-144 64-144 144s64 144 144 144c14.4 0 28.8-1.6 41.6-6.4l35.2-11.2 4.8 36.8c19.2 116.8 120 204.8 238.4 204.8 94.4 0 180.8-56 219.2-142.4l9.6-19.2 25.6 1.6c1.6 0 1.6 0 3.2 0 97.6 0 176-78.4 176-176s-78.4-176-174.4-176h-115.2c-17.6 0-32-14.4-32-32s14.4-32 32-32h112c132.8 0 240 107.2 240 240 0 128-100.8 233.6-228.8 240zM640 320c8 0 16 3.2 22.4 9.6 12.8 12.8 12.8 32 0 44.8l-150.4 150.4-150.4-150.4c-12.8-12.8-12.8-32 0-44.8s32-12.8 44.8 0l73.6 73.6v-275.2c0-17.6 14.4-32 32-32s32 14.4 32 32v275.2l73.6-73.6c6.4-6.4 14.4-9.6 22.4-9.6z" />
<glyph unicode="&#xe908;" glyph-name="compass-e-f" horiz-adv-x="768" d="M768 448c0 212.8-171.2 384-384 384s-384-171.2-384-384c0-212.8 171.2-384 384-384s384 171.2 384 384zM264 448c0 44.8 35.2 80 80 80 14.4 0 28.8-3.2 40-11.2l120-68.8-120-68.8c-11.2-6.4-25.6-11.2-40-11.2-44.8 0-80 35.2-80 80z" />
<glyph unicode="&#xe909;" glyph-name="compass-e" horiz-adv-x="832" d="M416 32c-228.8 0-416 187.2-416 416s187.2 416 416 416 416-187.2 416-416-187.2-416-416-416zM416 800c-193.6 0-352-158.4-352-352s158.4-352 352-352 352 158.4 352 352-158.4 352-352 352zM384 352c-52.8 0-96 43.2-96 96s43.2 96 96 96c17.6 0 33.6-4.8 48-12.8l144-83.2-144-83.2c-14.4-8-30.4-12.8-48-12.8zM384 480c-17.6 0-32-14.4-32-32s14.4-32 32-32c6.4 0 11.2 1.6 16 4.8l48 27.2-48 27.2c-4.8 3.2-9.6 4.8-16 4.8z" />
<glyph unicode="&#xe90a;" glyph-name="compass-f" horiz-adv-x="960" d="M817.6 787.204c-187.2 187.2-491.2 187.2-678.4 0s-187.2-491.2 0-678.4c187.2-187.2 491.2-187.2 678.4 0s187.2 491.2 0 678.4zM550.4 376.004l-216-72 72 216 216 72-72-216z" />
<glyph unicode="&#xe90b;" glyph-name="compass-n-f" horiz-adv-x="768" d="M384 832c-212.8 0-384-171.2-384-384s171.2-384 384-384c212.8 0 384 171.2 384 384s-171.2 384-384 384zM384 328c-44.8 0-80 35.2-80 80 0 14.4 3.2 28.8 11.2 40l68.8 120 68.8-120c6.4-11.2 11.2-25.6 11.2-40 0-44.8-35.2-80-80-80z" />
<glyph unicode="&#xe90c;" glyph-name="compass-n" horiz-adv-x="832" d="M416 32c-228.8 0-416 187.2-416 416s187.2 416 416 416 416-187.2 416-416-187.2-416-416-416zM416 800c-193.6 0-352-158.4-352-352s158.4-352 352-352 352 158.4 352 352-158.4 352-352 352zM416 320c-52.8 0-96 43.2-96 96 0 17.6 4.8 33.6 12.8 48l83.2 144 83.2-144c8-14.4 12.8-30.4 12.8-48 0-52.8-43.2-96-96-96zM416 480l-27.2-48c-3.2-4.8-4.8-9.6-4.8-16 0-17.6 14.4-32 32-32s32 14.4 32 32c0 6.4-1.6 11.2-4.8 16v0l-27.2 48z" />
<glyph unicode="&#xe90d;" glyph-name="compass-s-f" horiz-adv-x="768" d="M384 64c212.8 0 384 171.2 384 384s-171.2 384-384 384c-212.8 0-384-171.2-384-384s171.2-384 384-384zM384 568c44.8 0 80-35.2 80-80 0-14.4-3.2-28.8-11.2-40l-68.8-120-68.8 120c-6.4 11.2-11.2 25.6-11.2 40 0 44.8 35.2 80 80 80z" />
<glyph unicode="&#xe90e;" glyph-name="compass-s" horiz-adv-x="832" d="M416 32c-228.8 0-416 187.2-416 416s187.2 416 416 416 416-187.2 416-416-187.2-416-416-416zM416 800c-193.6 0-352-158.4-352-352s158.4-352 352-352 352 158.4 352 352-158.4 352-352 352zM416 288l-83.2 144c-8 14.4-12.8 30.4-12.8 48 0 52.8 43.2 96 96 96s96-43.2 96-96c0-17.6-4.8-33.6-12.8-48l-83.2-144zM416 512c-17.6 0-32-14.4-32-32 0-6.4 1.6-11.2 4.8-16l27.2-48 27.2 48c3.2 4.8 4.8 9.6 4.8 16 0 17.6-14.4 32-32 32z" />
<glyph unicode="&#xe90f;" glyph-name="compass-w-f" horiz-adv-x="768" d="M0 448c0-212.8 171.2-384 384-384s384 171.2 384 384c0 212.8-171.2 384-384 384s-384-171.2-384-384zM504 448c0-44.8-35.2-80-80-80-14.4 0-28.8 3.2-40 11.2l-120 68.8 120 68.8c11.2 6.4 25.6 11.2 40 11.2 44.8 0 80-35.2 80-80z" />
<glyph unicode="&#xe910;" glyph-name="compass-w" horiz-adv-x="832" d="M416 32c-228.8 0-416 187.2-416 416s187.2 416 416 416 416-187.2 416-416-187.2-416-416-416zM416 800c-193.6 0-352-158.4-352-352s158.4-352 352-352 352 158.4 352 352-158.4 352-352 352zM448 352c-17.6 0-33.6 4.8-48 12.8l-144 83.2 144 83.2c14.4 8 30.4 12.8 48 12.8 52.8 0 96-43.2 96-96s-43.2-96-96-96zM384 448l48-27.2c4.8-3.2 9.6-4.8 16-4.8 17.6 0 32 14.4 32 32s-14.4 32-32 32c-6.4 0-11.2-1.6-16-4.8v0l-48-27.2z" />
<glyph unicode="&#xe911;" glyph-name="compass" d="M512-64c-136 0-265.6 52.8-361.6 150.4-97.6 96-150.4 225.6-150.4 361.6s52.8 265.6 150.4 361.6c96 97.6 225.6 150.4 361.6 150.4s265.6-52.8 361.6-150.4c96-96 150.4-225.6 150.4-361.6s-52.8-265.6-150.4-361.6c-96-97.6-225.6-150.4-361.6-150.4zM512 896c-120 0-232-46.4-316.8-131.2-174.4-174.4-174.4-459.2 0-633.6 84.8-84.8 196.8-131.2 316.8-131.2s232 46.4 316.8 131.2v0c84.8 84.8 131.2 196.8 131.2 316.8s-46.4 232-131.2 316.8c-84.8 84.8-196.8 131.2-316.8 131.2zM332.8 268.8l89.6 267.2 267.2 89.6-89.6-267.2-267.2-89.6zM473.6 486.4l-38.4-116.8 116.8 38.4 38.4 116.8-116.8-38.4z" />
<glyph unicode="&#xe912;" glyph-name="degree-celsius" horiz-adv-x="736" d="M256 832c0 70.4-57.6 128-128 128s-128-57.6-128-128 57.6-128 128-128 128 57.6 128 128zM128 768c-35.2 0-64 28.8-64 64s28.8 64 64 64 64-28.8 64-64-28.8-64-64-64zM684.8 49.6c-44.8-32-99.2-49.6-156.8-49.6-150.4 0-272 121.6-272 272v160c0 150.4 121.6 272 272 272 56 0 110.4-17.6 156.8-49.6 14.4-9.6 35.2-6.4 44.8 8s6.4 35.2-8 44.8c-56 40-123.2 60.8-193.6 60.8-185.6 0-336-150.4-336-336v-160c0-185.6 150.4-336 336-336 70.4 0 137.6 20.8 193.6 60.8 14.4 9.6 17.6 30.4 8 44.8s-30.4 17.6-44.8 8z" />
<glyph unicode="&#xe913;" glyph-name="degree-fahrenheit" horiz-adv-x="800" d="M768 768h-448v-800c0-17.6 14.4-32 32-32s32 14.4 32 32v384h256c17.6 0 32 14.4 32 32s-14.4 32-32 32h-256v288h384c17.6 0 32 14.4 32 32s-14.4 32-32 32zM128 960c-70.4 0-128-57.6-128-128s57.6-128 128-128 128 57.6 128 128-57.6 128-128 128zM128 768c-35.2 0-64 28.8-64 64s28.8 64 64 64 64-28.8 64-64-28.8-64-64-64z" />
<glyph unicode="&#xe914;" glyph-name="drizzle-f" horiz-adv-x="960" d="M752 768c-3.2 0-4.8 0-8 0-43.2 94.4-137.6 160-248 160-136 0-249.6-100.8-268.8-232-16 4.8-33.6 8-51.2 8-97.6 0-176-78.4-176-176s78.4-176 176-176h574.4c0 0 1.6 0 1.6 0 115.2 0 208 92.8 208 208s-92.8 208-208 208zM272 288c-17.6 0-32-14.4-32-32v0c0-17.6 14.4-32 32-32s32 14.4 32 32-14.4 32-32 32zM208 160c-17.6 0-32-14.4-32-32v0c0-17.6 14.4-32 32-32s32 14.4 32 32c0 17.6-14.4 32-32 32zM272 32c-17.6 0-32-14.4-32-32v0c0-17.6 14.4-32 32-32s32 14.4 32 32c0 17.6-14.4 32-32 32zM432 192c0 17.6-14.4 32-32 32s-32-14.4-32-32v0c0-17.6 14.4-32 32-32s32 14.4 32 32zM432 96c-17.6 0-32-14.4-32-32v0c0-17.6 14.4-32 32-32s32 14.4 32 32c0 17.6-14.4 32-32 32zM592 128c0 17.6-14.4 32-32 32s-32-14.4-32-32v0c0-17.6 14.4-32 32-32s32 14.4 32 32zM592 288c-17.6 0-32-14.4-32-32v0c0-17.6 14.4-32 32-32s32 14.4 32 32-14.4 32-32 32zM592 32c-17.6 0-32-14.4-32-32v0c0-17.6 14.4-32 32-32s32 14.4 32 32-14.4 32-32 32zM720 96c-17.6 0-32-14.4-32-32v0c0-17.6 14.4-32 32-32s32 14.4 32 32c0 17.6-14.4 32-32 32zM752 256c-17.6 0-32-14.4-32-32v0c0-17.6 14.4-32 32-32s32 14.4 32 32c0 17.6-14.4 32-32 32zM480 480c-17.6 0-32-14.4-32-32v0c0-17.6 14.4-32 32-32s32 14.4 32 32-14.4 32-32 32z" />
<glyph unicode="&#xe915;" glyph-name="drizzle" d="M795.2 800c-51.2 97.6-155.2 160-267.2 160-137.6 0-259.2-94.4-292.8-225.6-9.6 1.6-17.6 1.6-27.2 1.6-115.2 0-208-92.8-208-208s92.8-208 208-208h576c132.8 0 240 107.2 240 240 0 128-100.8 233.6-228.8 240zM784 384h-576c-80 0-144 64-144 144s64 144 144 144c14.4 0 28.8-1.6 41.6-6.4l35.2-11.2 4.8 36.8c19.2 116.8 120 204.8 238.4 204.8 94.4 0 180.8-56 219.2-142.4l9.6-19.2 25.6 1.6c1.6 0 1.6 0 3.2 0 97.6 0 176-78.4 176-176-1.6-97.6-80-176-177.6-176zM393.6 182.4c-6.4-6.4-9.6-14.4-9.6-22.4s3.2-16 9.6-22.4c6.4-6.4 14.4-9.6 22.4-9.6s16 3.2 22.4 9.6c6.4 6.4 9.6 14.4 9.6 22.4s-3.2 16-9.6 22.4c-11.2 12.8-33.6 12.8-44.8 0zM288 192c8 0 16 3.2 22.4 9.6s9.6 14.4 9.6 22.4c0 8-3.2 16-9.6 22.4-12.8 11.2-33.6 11.2-44.8 0-6.4-4.8-9.6-14.4-9.6-22.4s3.2-16 9.6-22.4c6.4-6.4 14.4-9.6 22.4-9.6zM246.4 73.6c6.4 6.4 9.6 14.4 9.6 22.4s-3.2 16-9.6 22.4c-12.8 11.2-33.6 11.2-44.8 0-6.4-4.8-9.6-14.4-9.6-22.4s3.2-16 9.6-22.4c6.4-6.4 14.4-9.6 22.4-9.6s16 3.2 22.4 9.6zM265.6-54.4c6.4-6.4 14.4-9.6 22.4-9.6s16 3.2 22.4 9.6c6.4 6.4 9.6 14.4 9.6 22.4s-3.2 16-9.6 22.4c-12.8 11.2-33.6 11.2-44.8 0-6.4-4.8-9.6-14.4-9.6-22.4s3.2-16 9.6-22.4zM416 32c0-8 3.2-16 9.6-22.4s14.4-9.6 22.4-9.6c8 0 16 3.2 22.4 9.6s9.6 14.4 9.6 22.4c0 8-3.2 16-9.6 22.4-12.8 11.2-33.6 11.2-44.8 0-6.4-4.8-9.6-14.4-9.6-22.4zM553.6 118.4c-6.4-4.8-9.6-14.4-9.6-22.4s3.2-16 9.6-22.4c6.4-6.4 14.4-9.6 22.4-9.6s16 3.2 22.4 9.6c6.4 6.4 9.6 14.4 9.6 22.4s-3.2 16-9.6 22.4c-11.2 12.8-33.6 12.8-44.8 0zM630.4 246.4c-12.8 11.2-33.6 11.2-44.8 0-6.4-4.8-9.6-14.4-9.6-22.4s3.2-16 9.6-22.4c6.4-6.4 14.4-9.6 22.4-9.6s16 3.2 22.4 9.6c6.4 6.4 9.6 14.4 9.6 22.4s-3.2 17.6-9.6 22.4zM790.4 169.6c6.4 6.4 9.6 14.4 9.6 22.4s-3.2 16-9.6 22.4c-12.8 11.2-33.6 11.2-44.8 0-6.4-4.8-9.6-12.8-9.6-22.4 0-8 3.2-16 9.6-22.4s14.4-9.6 22.4-9.6c8 0 16 3.2 22.4 9.6zM713.6 54.4c-6.4-4.8-9.6-14.4-9.6-22.4s3.2-16 9.6-22.4c6.4-6.4 14.4-9.6 22.4-9.6s16 3.2 22.4 9.6c6.4 6.4 9.6 14.4 9.6 22.4s-3.2 16-9.6 22.4c-11.2 12.8-33.6 12.8-44.8 0zM585.6-9.6c-6.4-4.8-9.6-14.4-9.6-22.4s3.2-16 9.6-22.4c6.4-6.4 14.4-9.6 22.4-9.6s16 3.2 22.4 9.6c6.4 6.4 9.6 14.4 9.6 22.4s-3.2 16-9.6 22.4c-11.2 12.8-33.6 12.8-44.8 0z" />
<glyph unicode="&#xe916;" glyph-name="drop-cloud-f" horiz-adv-x="960" d="M576 137.6c0 8-1.6 16-4.8 24-19.2 68.8-91.2 158.4-91.2 158.4s-72-89.6-91.2-158.4c-3.2-8-3.2-16-4.8-24 0-3.2 0-4.8 0-8 0-54.4 43.2-97.6 96-97.6s96 43.2 96 97.6c0 3.2 0 4.8 0 8zM752 704c-3.2 0-4.8 0-8 0-43.2 94.4-137.6 160-248 160-136 0-249.6-100.8-268.8-232-16 4.8-33.6 8-51.2 8-97.6 0-176-78.4-176-176s78.4-176 176-176h203.2c24 36.8 46.4 65.6 49.6 72l49.6 64 49.6-64c4.8-4.8 27.2-33.6 49.6-72h172.8c0 0 1.6 0 1.6 0 115.2 0 208 92.8 208 208s-92.8 208-208 208z" />
<glyph unicode="&#xe917;" glyph-name="drop-cloud" d="M784 256h-112c-17.6 0-32 14.4-32 32s14.4 32 32 32h113.6c96 0 174.4 80 174.4 176 0 97.6-78.4 176-176 176-1.6 0-1.6 0-3.2 0l-25.6-1.6-9.6 19.2c-36.8 86.4-123.2 142.4-217.6 142.4-118.4 0-219.2-88-236.8-204.8l-4.8-36.8-35.2 11.2c-14.4 4.8-28.8 6.4-43.2 6.4-80 0-144-64-144-144s64-144 144-144h144c17.6 0 32-14.4 32-32s-14.4-32-32-32h-144c-115.2 0-208 92.8-208 208s92.8 208 208 208c9.6 0 17.6 0 27.2-1.6 33.6 131.2 155.2 225.6 292.8 225.6 112 0 214.4-62.4 267.2-160 128-6.4 228.8-112 228.8-240 0-132.8-107.2-240-240-240zM512 0c-70.4 0-128 57.6-128 129.6 0 3.2 0 6.4 0 9.6 0 9.6 3.2 20.8 6.4 30.4 20.8 73.6 92.8 164.8 96 169.6l25.6 32 25.6-32c3.2-3.2 75.2-96 96-169.6 3.2-8 4.8-19.2 6.4-28.8 0-3.2 0-6.4 0-9.6 0-73.6-57.6-131.2-128-131.2zM512 265.6c-20.8-30.4-49.6-76.8-60.8-113.6-1.6-6.4-3.2-11.2-3.2-17.6 0-1.6 0-3.2 0-4.8 0-36.8 28.8-65.6 64-65.6s64 28.8 64 65.6c0 1.6 0 3.2 0 4.8v1.6c0 4.8-1.6 11.2-3.2 16-11.2 36.8-40 83.2-60.8 113.6z" />
<glyph unicode="&#xe918;" glyph-name="drop-f" horiz-adv-x="640" d="M640 318.4c-1.6 27.2-6.4 52.8-16 78.4-64 230.4-302.4 531.2-302.4 531.2s-238.4-300.8-304-531.2c-8-25.6-12.8-51.2-16-78.4 0-8-1.6-16-1.6-24 1.6-180.8 145.6-326.4 321.6-326.4s320 145.6 320 326.4c0 8 0 16-1.6 24z" />
<glyph unicode="&#xe919;" glyph-name="drop-percentage-f" horiz-adv-x="640" d="M257.6 448c0-17.673-14.327-32-32-32s-32 14.327-32 32c0 17.673 14.327 32 32 32s32-14.327 32-32zM449.6 192c0-17.673-14.327-32-32-32s-32 14.327-32 32c0 17.673 14.327 32 32 32s32-14.327 32-32zM640 318.4c-1.6 27.2-6.4 52.8-16 78.4-64 230.4-302.4 531.2-302.4 531.2s-238.4-300.8-304-531.2c-8-25.6-12.8-51.2-16-78.4 0-8-1.6-16-1.6-24 1.6-180.8 145.6-326.4 321.6-326.4s320 145.6 320 326.4c0 8 0 16-1.6 24zM129.6 448c0 52.8 43.2 96 96 96s96-43.2 96-96c0-52.8-43.2-96-96-96s-96 43.2-96 96zM225.6 128c-6.4 0-11.2 1.6-16 4.8-14.4 9.6-20.8 28.8-11.2 43.2l192 320c9.6 14.4 28.8 20.8 43.2 11.2s20.8-28.8 11.2-43.2l-192-320c-6.4-11.2-16-16-27.2-16zM417.6 96c-52.8 0-96 43.2-96 96s43.2 96 96 96c52.8 0 96-43.2 96-96s-43.2-96-96-96z" />
<glyph unicode="&#xe91a;" glyph-name="drop-percentage" horiz-adv-x="720" d="M361.6-64c-190.4 0-345.6 158.4-345.6 352 0 8 0 17.6 1.6 27.2 1.6 28.8 8 57.6 16 83.2 64 228.8 292.8 518.4 302.4 529.6l25.6 32 24-30.4c9.6-12.8 238.4-302.4 304-531.2 8-25.6 14.4-54.4 16-83.2 1.6-9.6 1.6-19.2 1.6-27.2 0-193.6-155.2-352-345.6-352zM361.6 857.6c-60.8-81.6-217.6-302.4-267.2-476.8-8-24-12.8-46.4-14.4-70.4 0-8-1.6-16-1.6-22.4 0-160 126.4-289.6 283.2-289.6s283.2 129.6 283.2 289.6c0 6.4 0 12.8-1.6 20.8v0c-1.6 24-6.4 48-12.8 68.8-51.2 177.6-208 398.4-268.8 480zM267.2 124.8c-4.8 0-11.2 1.6-16 4.8-14.4 9.6-19.2 28.8-11.2 43.2l188.8 313.6c9.6 14.4 28.8 19.2 43.2 11.2 14.4-9.6 19.2-28.8 11.2-43.2l-188.8-315.2c-6.4-9.6-16-14.4-27.2-14.4zM267.2 344c-51.2 0-94.4 41.6-94.4 94.4s41.6 94.4 94.4 94.4 94.4-41.6 94.4-94.4-41.6-94.4-94.4-94.4zM267.2 470.4c-17.6 0-32-14.4-32-32s14.4-32 32-32c17.6 0 32 14.4 32 32s-14.4 32-32 32zM456 92.8c-51.2 0-94.4 41.6-94.4 94.4 0 51.2 41.6 94.4 94.4 94.4 51.2 0 94.4-41.6 94.4-94.4s-43.2-94.4-94.4-94.4zM456 217.6c-17.6 0-32-14.4-32-32s14.4-32 32-32 32 14.4 32 32-14.4 32-32 32z" />
<glyph unicode="&#xe91b;" glyph-name="drop" horiz-adv-x="720" d="M361.6-64c-190.4 0-345.6 158.4-345.6 352 0 8 0 17.6 1.6 27.2 1.6 28.8 8 57.6 16 83.2 64 228.8 292.8 518.4 302.4 529.6l25.6 32 24-30.4c9.6-12.8 238.4-302.4 304-531.2 8-25.6 14.4-54.4 16-83.2 1.6-9.6 1.6-19.2 1.6-27.2 0-193.6-155.2-352-345.6-352zM361.6 857.6c-60.8-81.6-217.6-302.4-267.2-476.8-8-24-12.8-46.4-14.4-70.4 0-8-1.6-16-1.6-22.4 0-160 126.4-289.6 283.2-289.6s283.2 129.6 283.2 289.6c0 6.4 0 12.8-1.6 20.8v0c-1.6 24-6.4 48-12.8 68.8-51.2 177.6-208 398.4-268.8 480z" />
<glyph unicode="&#xe91c;" glyph-name="drops-f" horiz-adv-x="896" d="M320 144c-1.6 12.8-3.2 27.2-8 40-33.6 113.6-152 264-152 264s-118.4-150.4-152-265.6c-3.2-12.8-6.4-25.6-8-38.4 0-4.8 0-8 0-12.8 0-89.6 72-163.2 160-163.2s160 73.6 160 163.2c0 4.8 0 8 0 12.8zM896 144c-1.6 12.8-3.2 27.2-8 40-33.6 113.6-152 264-152 264s-118.4-150.4-152-265.6c-4.8-12.8-6.4-25.6-8-40 0-4.8 0-8 0-12.8 0-88 72-161.6 160-161.6s160 73.6 160 163.2c0 4.8 0 8 0 12.8zM608 624c-1.6 14.4-3.2 27.2-8 40-33.6 113.6-152 264-152 264s-118.4-150.4-152-265.6c-4.8-12.8-6.4-25.6-8-40 0-4.8 0-8 0-12.8 0-88 72-161.6 160-161.6s160 73.6 160 163.2c0 4.8 0 8 0 12.8z" />
<glyph unicode="&#xe91d;" glyph-name="drops" horiz-adv-x="944" d="M187.2-64c-104 0-187.2 86.4-187.2 192 0 4.8 0 9.6 0 14.4 1.6 16 4.8 30.4 9.6 44.8 33.6 116.8 148.8 264 153.6 270.4l24 30.4 24-30.4c4.8-6.4 121.6-153.6 155.2-270.4 4.8-12.8 8-28.8 8-44.8 0-4.8 0-9.6 0-14.4 1.6-105.6-83.2-192-187.2-192zM187.2 385.6c-35.2-48-97.6-142.4-118.4-216-3.2-11.2-6.4-20.8-6.4-32 0-3.2 0-6.4 0-9.6 0-70.4 56-128 126.4-128s126.4 57.6 126.4 128c0 3.2 0 6.4 0 9.6v0c-1.6 11.2-3.2 20.8-6.4 30.4-24 76.8-86.4 169.6-121.6 217.6zM753.6-64c-104 0-188.8 86.4-188.8 192 0 4.8 0 9.6 0 14.4 1.6 16 4.8 30.4 9.6 44.8 33.6 116.8 148.8 264 153.6 270.4l24 30.4 24-30.4c4.8-6.4 121.6-153.6 155.2-270.4 4.8-12.8 8-28.8 8-44.8 0-4.8 0-9.6 0-14.4 1.6-105.6-81.6-192-185.6-192zM753.6 385.6c-35.2-48-97.6-142.4-118.4-216-3.2-11.2-6.4-20.8-6.4-32 0-3.2 0-6.4 0-9.6 0-70.4 56-128 126.4-128s126.4 57.6 126.4 128c0 3.2 0 6.4 0 9.6v0c-1.6 11.2-3.2 20.8-6.4 30.4-24 76.8-86.4 169.6-121.6 217.6zM470.4 406.4c-104 0-188.8 86.4-188.8 192 0 4.8 0 9.6 0 14.4 1.6 14.4 4.8 30.4 9.6 44.8 33.6 116.8 148.8 264 153.6 270.4l25.6 32 24-30.4c4.8-6.4 121.6-153.6 155.2-270.4 4.8-12.8 8-28.8 8-44.8 0-4.8 0-9.6 0-14.4 1.6-107.2-83.2-193.6-187.2-193.6zM470.4 857.6c-35.2-48-97.6-142.4-118.4-216-3.2-11.2-6.4-20.8-6.4-32 0-3.2 0-6.4 0-9.6 0-70.4 56-128 126.4-128s126.4 57.6 126.4 128c0 3.2 0 6.4 0 9.6v0c-1.6 11.2-3.2 20.8-6.4 30.4-24 75.2-86.4 168-121.6 217.6z" />
<glyph unicode="&#xe91e;" glyph-name="eclipse-1-f" horiz-adv-x="896" d="M512 705.6c17.6 0 32 14.4 32 32v128c0 17.6-14.4 32-32 32s-32-14.4-32-32v-128c0-17.6 14.4-32 32-32zM192 385.6c0 17.6-14.4 32-32 32h-128c-17.6 0-32-14.4-32-32s14.4-32 32-32h128c17.6 0 32 14.4 32 32zM240 611.2c6.4-6.4 14.4-9.6 22.4-9.6s16 3.2 22.4 9.6c12.8 12.8 12.8 32 0 44.8l-91.2 91.2c-12.8 12.8-32 12.8-44.8 0s-12.8-32 0-44.8l91.2-91.2zM889.6 731.2c-12.8 12.8-32 12.8-44.8 0l-158.4-158.4c-48 44.8-108.8 68.8-174.4 68.8-140.8 0-256-115.2-256-256 0-65.6 24-126.4 68.8-174.4l-158.4-158.4c-12.8-12.8-12.8-32 0-44.8 6.4-6.4 14.4-9.6 22.4-9.6s16 3.2 22.4 9.6l163.2 163.2c41.6-27.2 88-40 139.2-40 140.8 0 256 115.2 256 256 0 49.6-14.4 97.6-40 139.2l163.2 163.2c9.6 9.6 9.6 30.4-3.2 41.6zM512 577.6c48 0 92.8-17.6 128-49.6l-270.4-270.4c-32 35.2-49.6 80-49.6 128 0 105.6 86.4 192 192 192z" />
<glyph unicode="&#xe91f;" glyph-name="eclipse-1" horiz-adv-x="896" d="M512 185.6c-16 0-30.4 1.6-46.4 4.8-17.6 4.8-35.2-6.4-38.4-24-4.8-17.6 6.4-35.2 24-38.4 19.2-4.8 40-8 60.8-8 140.8 0 256 115.2 256 256 0 22.4-3.2 44.8-8 65.6-4.8 17.6-22.4 27.2-38.4 22.4-17.6-4.8-27.2-22.4-22.4-38.4s6.4-32 6.4-49.6c-1.6-104-88-190.4-193.6-190.4zM310.4 220.8l-160-160c-12.8-12.8-12.8-32 0-44.8 6.4-6.4 14.4-9.6 22.4-9.6s16 3.2 22.4 9.6l179.2 179.2c0 0 1.6 1.6 1.6 1.6s1.6 1.6 1.6 1.6l496 496c12.8 12.8 12.8 32 0 44.8s-32 12.8-44.8 0l-160-160c-44.8 35.2-99.2 54.4-156.8 54.4-140.8 0-256-115.2-256-256 0-57.6 19.2-112 54.4-156.8zM512 569.6c40 0 78.4-12.8 110.4-35.2l-267.2-267.2c-22.4 32-35.2 70.4-35.2 110.4 0 105.6 86.4 192 192 192zM512 697.6c17.6 0 32 14.4 32 32v128c0 17.6-14.4 32-32 32s-32-14.4-32-32v-128c0-17.6 14.4-32 32-32zM32 345.6h128c17.6 0 32 14.4 32 32s-14.4 32-32 32h-128c-17.6 0-32-14.4-32-32s14.4-32 32-32zM240 603.2c6.4-6.4 14.4-9.6 22.4-9.6s16 3.2 22.4 9.6c12.8 12.8 12.8 32 0 44.8l-91.2 91.2c-12.8 12.8-32 12.8-44.8 0s-12.8-32 0-44.8l91.2-91.2z" />
<glyph unicode="&#xe920;" glyph-name="eclipse-2-f" horiz-adv-x="896" d="M512 705.6c17.6 0 32 14.4 32 32v128c0 17.6-14.4 32-32 32s-32-14.4-32-32v-128c0-17.6 14.4-32 32-32zM192 385.6c0 17.6-14.4 32-32 32h-128c-17.6 0-32-14.4-32-32s14.4-32 32-32h128c17.6 0 32 14.4 32 32zM240 611.2c6.4-6.4 14.4-9.6 22.4-9.6s16 3.2 22.4 9.6c12.8 12.8 12.8 32 0 44.8l-91.2 91.2c-12.8 12.8-32 12.8-44.8 0s-12.8-32 0-44.8l91.2-91.2zM889.6 731.2c-12.8 12.8-32 12.8-44.8 0l-678.4-678.4c-12.8-12.8-12.8-32 0-44.8 6.4-6.4 14.4-9.6 22.4-9.6s16 3.2 22.4 9.6l678.4 678.4c12.8 12.8 12.8 33.6 0 44.8zM288 262.4l347.2 347.2c-36.8 20.8-80 32-123.2 32-140.8 0-256-115.2-256-256 0-44.8 11.2-86.4 32-123.2z" />
<glyph unicode="&#xe921;" glyph-name="eclipse-2" horiz-adv-x="896" d="M310.4 220.8l-160-160c-12.8-12.8-12.8-32 0-44.8 6.4-6.4 14.4-9.6 22.4-9.6s16 3.2 22.4 9.6l678.4 678.4c12.8 12.8 12.8 32 0 44.8s-32 12.8-44.8 0l-160-160c-44.8 35.2-99.2 54.4-156.8 54.4-140.8 0-256-115.2-256-256 0-57.6 19.2-112 54.4-156.8zM512 569.6c40 0 78.4-12.8 110.4-35.2l-267.2-267.2c-22.4 32-35.2 70.4-35.2 110.4 0 105.6 86.4 192 192 192zM512 697.6c17.6 0 32 14.4 32 32v128c0 17.6-14.4 32-32 32s-32-14.4-32-32v-128c0-17.6 14.4-32 32-32zM32 345.6h128c17.6 0 32 14.4 32 32s-14.4 32-32 32h-128c-17.6 0-32-14.4-32-32s14.4-32 32-32zM240 603.2c6.4-6.4 14.4-9.6 22.4-9.6s16 3.2 22.4 9.6c12.8 12.8 12.8 32 0 44.8l-91.2 91.2c-12.8 12.8-32 12.8-44.8 0s-12.8-32 0-44.8l91.2-91.2z" />
<glyph unicode="&#xe922;" glyph-name="eclipse-3-f" d="M1014.4 950.4c-12.8 12.8-32 12.8-44.8 0l-305.6-304c-28.8 134.4-142.4 238.4-281.6 252.8 20.8-38.4 32-81.6 32-126.4 0-148.8-120-268.8-268.8-268.8-40 0-80 9.6-113.6 25.6 20.8-131.2 120-236.8 249.6-265.6l-272-272c-12.8-12.8-12.8-32 0-44.8 6.4-8 14.4-11.2 22.4-11.2s16 3.2 22.4 9.6l960 960c12.8 12.8 12.8 32 0 44.8z" />
<glyph unicode="&#xe923;" glyph-name="eclipse-3" d="M17.6-49.6c6.4-6.4 14.4-9.6 22.4-9.6s16 3.2 22.4 9.6l952 950.4c12.8 12.8 12.8 32 0 44.8s-32 12.8-44.8 0l-275.2-275.2c-38.4 137.6-158.4 241.6-304 256l-59.2 6.4 28.8-52.8c17.6-33.6 27.2-72 27.2-110.4 0-129.6-105.6-235.2-235.2-235.2-33.6 0-67.2 8-99.2 22.4l-52.8 24 9.6-59.2c20.8-137.6 121.6-246.4 252.8-283.2l-244.8-243.2c-11.2-12.8-11.2-33.6 0-44.8zM86.4 478.4c22.4-4.8 44.8-8 67.2-8 164.8 0 297.6 134.4 297.6 297.6 0 28.8-4.8 56-11.2 83.2 105.6-32 185.6-123.2 201.6-235.2l-326.4-324.8c-105.6 16-193.6 88-228.8 187.2z" />
<glyph unicode="&#xe924;" glyph-name="eclipse-4-f" horiz-adv-x="896" d="M512 633.6c-140.8 0-256-115.2-256-256s115.2-256 256-256c140.8 0 256 115.2 256 256s-115.2 256-256 256zM512 185.6c-70.4 0-131.2 36.8-164.8 92.8 12.8-3.2 27.2-4.8 40-4.8 121.6 0 219.2 99.2 219.2 219.2 0 17.6-1.6 35.2-6.4 52.8 60.8-32 102.4-96 102.4-169.6 1.6-104-84.8-190.4-190.4-190.4zM512 697.6c17.6 0 32 14.4 32 32v128c0 17.6-14.4 32-32 32s-32-14.4-32-32v-128c0-17.6 14.4-32 32-32zM192 377.6c0 17.6-14.4 32-32 32h-128c-17.6 0-32-14.4-32-32s14.4-32 32-32h128c17.6 0 32 14.4 32 32zM240 603.2c6.4-6.4 14.4-9.6 22.4-9.6s16 3.2 22.4 9.6c12.8 12.8 12.8 32 0 44.8l-91.2 91.2c-12.8 12.8-32 12.8-44.8 0s-12.8-32 0-44.8l91.2-91.2zM873.6 739.2c-12.8 12.8-32 12.8-44.8 0l-91.2-91.2c-12.8-12.8-12.8-32 0-44.8 6.4-6.4 14.4-9.6 22.4-9.6s16 3.2 22.4 9.6l91.2 91.2c12.8 12.8 12.8 33.6 0 44.8zM240 152l-91.2-91.2c-12.8-12.8-12.8-32 0-44.8 6.4-6.4 14.4-9.6 22.4-9.6s16 3.2 22.4 9.6l91.2 91.2c12.8 12.8 12.8 32 0 44.8-11.2 11.2-32 11.2-44.8 0z" />
<glyph unicode="&#xe925;" glyph-name="eclipse-4" horiz-adv-x="896" d="M512 121.6c140.8 0 256 115.2 256 256s-115.2 256-256 256-256-115.2-256-256 115.2-256 256-256zM704 377.6c0-105.6-86.4-192-192-192-75.2 0-140.8 44.8-172.8 107.2 11.2-1.6 20.8-3.2 32-3.2 121.6 0 219.2 99.2 219.2 219.2 0 14.4-1.6 28.8-4.8 43.2 70.4-27.2 118.4-96 118.4-174.4zM320 377.6c0 105.6 86.4 192 192 192 1.6 0 3.2 0 4.8 0 8-19.2 11.2-38.4 11.2-59.2 0-86.4-70.4-155.2-155.2-155.2-17.6 0-35.2 3.2-51.2 9.6-1.6 3.2-1.6 8-1.6 12.8zM544 729.6v128c0 17.6-14.4 32-32 32s-32-14.4-32-32v-128c0-17.6 14.4-32 32-32s32 14.4 32 32zM0 377.6c0-17.6 14.4-32 32-32h128c17.6 0 32 14.4 32 32s-14.4 32-32 32h-128c-17.6 0-32-14.4-32-32zM150.4 739.2c-12.8-12.8-12.8-32 0-44.8l91.2-91.2c6.4-6.4 14.4-9.6 22.4-9.6s16 3.2 22.4 9.6c12.8 12.8 12.8 32 0 44.8l-91.2 91.2c-12.8 12.8-33.6 12.8-44.8 0zM873.6 694.4c12.8 12.8 12.8 32 0 44.8s-32 12.8-44.8 0l-91.2-91.2c-12.8-12.8-12.8-32 0-44.8 6.4-6.4 14.4-9.6 22.4-9.6s16 3.2 22.4 9.6l91.2 91.2zM240 152l-91.2-91.2c-12.8-12.8-12.8-32 0-44.8 6.4-6.4 14.4-9.6 22.4-9.6s16 3.2 22.4 9.6l91.2 91.2c12.8 12.8 12.8 32 0 44.8-11.2 11.2-32 11.2-44.8 0z" />
<glyph unicode="&#xe926;" glyph-name="fog-1-f" d="M784 672c-3.2 0-4.8 0-8 0-43.2 94.4-137.6 160-248 160-136 0-249.6-100.8-268.8-232-16 4.8-33.6 8-51.2 8-91.2 0-166.4-70.4-176-160h960c0 115.2-92.8 224-208 224zM992 384h-960c-17.6 0-32-14.4-32-32s14.4-32 32-32h960c17.6 0 32 14.4 32 32s-14.4 32-32 32zM928 256h-800c-17.6 0-32-14.4-32-32s14.4-32 32-32h800c17.6 0 32 14.4 32 32s-14.4 32-32 32zM448 128h-256c-17.6 0-32-14.4-32-32s14.4-32 32-32h256c17.6 0 32 14.4 32 32s-14.4 32-32 32zM896 128h-320c-17.6 0-32-14.4-32-32s14.4-32 32-32h320c17.6 0 32 14.4 32 32s-14.4 32-32 32z" />
<glyph unicode="&#xe927;" glyph-name="fog-1" d="M1.6 435.2c-1.6-17.6 11.2-33.6 28.8-35.2 0 0 1.6 0 1.6 0 16 0 30.4 12.8 32 28.8 6.4 75.2 68.8 131.2 144 131.2 14.4 0 28.8-1.6 41.6-6.4l35.2-11.2 4.8 36.8c19.2 116.8 120 204.8 238.4 204.8 94.4 0 180.8-56 219.2-142.4l9.6-19.2 25.6 1.6c1.6 0 1.6 0 3.2 0 97.6 0 176-78.4 176-176 0-17.6 14.4-32 32-32s32 14.4 32 32c0 128-100.8 233.6-228.8 240-52.8 97.6-156.8 160-268.8 160-137.6 0-259.2-94.4-292.8-225.6-9.6 1.6-17.6 1.6-27.2 1.6-108.8 0-196.8-81.6-206.4-188.8zM32 304h960c17.6 0 32 14.4 32 32s-14.4 32-32 32h-960c-17.6 0-32-14.4-32-32s14.4-32 32-32zM960 208c0 17.6-14.4 32-32 32h-800c-17.6 0-32-14.4-32-32s14.4-32 32-32h800c17.6 0 32 14.4 32 32zM192 112c-17.6 0-32-14.4-32-32s14.4-32 32-32h256c17.6 0 32 14.4 32 32s-14.4 32-32 32h-256zM576 112c-17.6 0-32-14.4-32-32s14.4-32 32-32h320c17.6 0 32 14.4 32 32s-14.4 32-32 32h-320z" />
<glyph unicode="&#xe928;" glyph-name="fog-2-f" horiz-adv-x="992" d="M928 336h-896c-17.6 0-32-14.4-32-32s14.4-32 32-32h896c17.6 0 32 14.4 32 32s-14.4 32-32 32zM864 208h-768c-17.6 0-32-14.4-32-32s14.4-32 32-32h768c17.6 0 32 14.4 32 32s-14.4 32-32 32zM800 80h-608c-17.6 0-32-14.4-32-32s14.4-32 32-32h608c17.6 0 32 14.4 32 32s-14.4 32-32 32zM704 560c-6.4 0-12.8 0-19.2-1.6-36.8 94.4-129.6 161.6-236.8 161.6-131.2 0-238.4-97.6-254.4-224 0 0-1.6 0-1.6 0-65.6 0-121.6-40-147.2-96h848c-14.4 91.2-94.4 160-188.8 160zM720 624c96-8 177.6-67.2 214.4-153.6 35.2 28.8 57.6 73.6 57.6 123.2 0 88-72 160-160 160-32 75.2-105.6 128-192 128-75.2 0-139.2-38.4-176-96 107.2-9.6 203.2-68.8 256-161.6z" />
<glyph unicode="&#xe929;" glyph-name="fog-2" d="M852.8 766.4c-41.6 80-121.6 129.6-212.8 129.6-105.6 0-195.2-65.6-227.2-161.6-120-14.4-219.2-104-246.4-224-65.6-8-123.2-51.2-150.4-113.6-6.4-16 0-35.2 16-41.6s35.2 0 41.6 16c20.8 46.4 65.6 76.8 115.2 76.8l32-1.6 3.2 28.8c16 112 112 196.8 224 196.8 91.2 0 172.8-56 208-140.8l9.6-22.4 22.4 3.2c4.8 0 9.6 1.6 16 1.6 78.4 0 145.6-56 158.4-132.8 3.2-16 16-27.2 32-27.2 1.6 0 3.2 0 4.8 0 17.6 3.2 28.8 19.2 25.6 36.8-1.6 6.4-1.6 11.2-3.2 16 62.4 32 102.4 97.6 102.4 169.6 0 99.2-75.2 180.8-171.2 190.4zM897.6 465.6c-38.4 65.6-110.4 108.8-190.4 110.4-43.2 88-128 147.2-224 158.4 27.2 59.2 88 97.6 156.8 97.6 72 0 134.4-43.2 163.2-108.8l8-19.2h20.8c70.4 0 128-57.6 128-128 0-46.4-24-88-62.4-110.4zM960 288c0 17.6-14.4 32-32 32h-896c-17.6 0-32-14.4-32-32s14.4-32 32-32h896c17.6 0 32 14.4 32 32zM896 160c0 17.6-14.4 32-32 32h-768c-17.6 0-32-14.4-32-32s14.4-32 32-32h768c17.6 0 32 14.4 32 32zM192 64c-17.6 0-32-14.4-32-32s14.4-32 32-32h608c17.6 0 32 14.4 32 32s-14.4 32-32 32h-608z" />
<glyph unicode="&#xe92a;" glyph-name="fog-3-f" horiz-adv-x="1008" d="M972.8 292.8h-702.4c-17.6 0-32-14.4-32-32s14.4-32 32-32h702.4c17.6 0 32 14.4 32 32s-14.4 32-32 32zM908.8 164.8h-574.4c-17.6 0-32-14.4-32-32s14.4-32 32-32h574.4c17.6 0 32 14.4 32 32s-14.4 32-32 32zM844.8 36.8h-382.4c-17.6 0-32-14.4-32-32s14.4-32 32-32h382.4c17.6 0 32 14.4 32 32s-14.4 32-32 32zM366.4 36.8h-62.4c-17.6 0-32-14.4-32-32s14.4-32 32-32h62.4c17.6 0 32 14.4 32 32s-14.4 32-32 32zM368 763.2c17.6 0 32 14.4 32 32v96c0 17.6-14.4 32-32 32s-32-14.4-32-32v-96c0-17.6 14.4-32 32-32zM160 555.2c0 17.6-14.4 32-32 32h-96c-17.6 0-32-14.4-32-32s14.4-32 32-32h96c17.6 0 32 14.4 32 32zM180.8 697.6c6.4-6.4 14.4-9.6 22.4-9.6s16 3.2 22.4 9.6c12.8 12.8 12.8 32 0 44.8l-68.8 68.8c-12.8 12.8-32 12.8-44.8 0s-12.8-32 0-44.8l68.8-68.8zM532.8 688c8 0 16 3.2 22.4 9.6l68.8 68.8c12.8 12.8 12.8 32 0 44.8s-32 12.8-44.8 0l-68.8-68.8c-12.8-12.8-12.8-32 0-44.8 6.4-6.4 14.4-9.6 22.4-9.6zM180.8 412.8l-68.8-68.8c-12.8-12.8-12.8-32 0-44.8 6.4-4.8 14.4-8 22.4-8s16 3.2 22.4 9.6l68.8 68.8c12.8 12.8 12.8 32 0 44.8-12.8 11.2-33.6 11.2-44.8-1.6zM416 441.6c-4.8 0-11.2 1.6-17.6 1.6-56 0-104-36.8-121.6-88h694.4c0 0 1.6 0 1.6 0-4.8 84.8-73.6 152-160 152-32 75.2-105.6 128-192 128-107.2 1.6-196.8-84.8-204.8-193.6zM256 443.2c27.2 32 65.6 54.4 107.2 62.4 19.2 67.2 64 123.2 123.2 158.4-28.8 33.6-72 52.8-120 52.8-88 0-160-72-160-160 1.6-44.8 19.2-84.8 49.6-113.6z" />
<glyph unicode="&#xe92b;" glyph-name="fog-3" d="M352 896v-96c0-17.6 14.4-32 32-32s32 14.4 32 32v96c0 17.6-14.4 32-32 32s-32-14.4-32-32zM32 512h96c17.6 0 32 14.4 32 32s-14.4 32-32 32h-96c-17.6 0-32-14.4-32-32s14.4-32 32-32zM180.8 702.4c6.4-6.4 14.4-9.6 22.4-9.6s16 3.2 22.4 9.6c12.8 12.8 12.8 32 0 44.8l-67.2 68.8c-12.8 11.2-33.6 11.2-46.4 0-12.8-12.8-12.8-32 0-44.8l68.8-68.8zM611.2 816l-68.8-68.8c-12.8-12.8-12.8-32 0-44.8 6.4-6.4 14.4-9.6 22.4-9.6s16 3.2 22.4 9.6l68.8 68.8c12.8 12.8 12.8 32 0 44.8s-33.6 11.2-44.8 0zM112 272c6.4-6.4 14.4-9.6 22.4-9.6s16 3.2 22.4 9.6l68.8 68.8c12.8 12.8 12.8 32 0 44.8s-32 12.8-44.8 0l-68.8-68.8c-12.8-11.2-12.8-32 0-44.8zM852.8 542.4c-40 80-121.6 129.6-212.8 129.6-35.2 0-67.2-8-97.6-20.8-35.2 52.8-94.4 84.8-158.4 84.8-105.6 0-192-86.4-192-192 0-62.4 30.4-120 80-155.2-4.8-9.6-8-19.2-11.2-28.8-4.8-17.6 6.4-35.2 22.4-38.4 3.2 0 4.8-1.6 8-1.6 14.4 0 27.2 9.6 30.4 24 11.2 41.6 49.6 72 92.8 72 3.2 0 6.4 0 9.6-1.6l36.8-4.8 1.6 33.6c9.6 92.8 86.4 164.8 177.6 164.8 72 0 134.4-43.2 163.2-108.8l8-19.2h20.8c70.4 0 128-57.6 128-128 0-17.6 14.4-32 32-32s32 14.4 32 32c0 99.2-75.2 180.8-171.2 190.4zM404.8 480c-36.8-3.2-68.8-17.6-96-40-32 24-52.8 62.4-52.8 104 0 70.4 57.6 128 128 128 41.6 0 80-20.8 104-54.4-41.6-35.2-72-83.2-83.2-137.6zM1022.4 256c0 17.6-14.4 32-32 32h-702.4c-17.6 0-32-14.4-32-32s14.4-32 32-32h702.4c17.6 0 32 14.4 32 32zM958.4 128c0 17.6-14.4 32-32 32h-574.4c-17.6 0-32-14.4-32-32s14.4-32 32-32h574.4c17.6 0 32 14.4 32 32zM480 32c-17.6 0-32-14.4-32-32s14.4-32 32-32h382.4c17.6 0 32 14.4 32 32s-14.4 32-32 32h-382.4zM321.6 32c-17.6 0-32-14.4-32-32s14.4-32 32-32h62.4c17.6 0 32 14.4 32 32s-14.4 32-32 32h-62.4z" />
<glyph unicode="&#xe92c;" glyph-name="fog-4-f" horiz-adv-x="960" d="M227.2 496c0 0-1.6 0-1.6 0-52.8 0-99.2-25.6-128-64h820.8c-25.6 75.2-97.6 128-180.8 128-6.4 0-12.8 0-19.2-1.6-38.4 94.4-129.6 161.6-238.4 161.6-129.6 0-238.4-97.6-252.8-224zM75.2 502.4c27.2 25.6 62.4 43.2 97.6 51.2 27.2 92.8 94.4 168 182.4 204.8-35.2 54.4-94.4 89.6-163.2 89.6-3.2 0-8 0-11.2 0 6.4-16 11.2-35.2 11.2-54.4 0-75.2-60.8-137.6-137.6-137.6-19.2 0-38.4 4.8-54.4 11.2 0-3.2 0-8 0-11.2 0-62.4 28.8-118.4 75.2-153.6zM928 368h-864c-17.6 0-32-14.4-32-32s14.4-32 32-32h864c17.6 0 32 14.4 32 32s-14.4 32-32 32zM832 240h-704c-17.6 0-32-14.4-32-32s14.4-32 32-32h704c17.6 0 32 14.4 32 32s-14.4 32-32 32zM768 112h-512c-17.6 0-32-14.4-32-32s14.4-32 32-32h512c17.6 0 32 14.4 32 32s-14.4 32-32 32zM160 112h-62.4c-17.6 0-32-14.4-32-32s14.4-32 32-32h62.4c17.6 0 32 14.4 32 32s-14.4 32-32 32z" />
<glyph unicode="&#xe92d;" glyph-name="fog-4" horiz-adv-x="992" d="M44.8 680l-41.6 17.6-3.2-48c0-3.2 0-6.4 0-9.6 0-80 43.2-153.6 112-193.6-3.2-3.2-6.4-6.4-8-11.2-11.2-14.4-8-33.6 6.4-44.8s33.6-8 44.8 6.4c24 32 60.8 51.2 100.8 51.2l32-1.6 3.2 28.8c12.8 112 108.8 196.8 220.8 196.8 91.2 0 172.8-56 208-140.8l9.6-22.4 24 1.6c4.8 0 9.6 0 16 0 67.2 0 128-43.2 150.4-107.2 4.8-12.8 17.6-20.8 30.4-20.8 3.2 0 6.4 0 11.2 1.6 16 6.4 25.6 24 19.2 41.6-32 89.6-115.2 148.8-209.6 148.8-48 97.6-147.2 160-257.6 160-27.2 0-54.4-4.8-80-11.2-35.2 84.8-116.8 140.8-209.6 140.8-3.2 0-8 0-11.2 0l-48-3.2 17.6-41.6c6.4-12.8 8-27.2 8-41.6 0-57.6-48-105.6-105.6-105.6-12.8 0-27.2 3.2-40 8zM256 777.6c0 6.4 0 12.8-1.6 20.8 52.8-9.6 97.6-46.4 118.4-97.6-70.4-40-123.2-107.2-142.4-188.8-22.4-3.2-44.8-9.6-64-20.8-51.2 19.2-89.6 65.6-100.8 118.4 8-1.6 14.4-1.6 20.8-1.6 94.4 0 169.6 75.2 169.6 169.6zM992 320c0 17.6-14.4 32-32 32h-864c-17.6 0-32-14.4-32-32s14.4-32 32-32h864c17.6 0 32 14.4 32 32zM896 192c0 17.6-14.4 32-32 32h-704c-17.6 0-32-14.4-32-32s14.4-32 32-32h704c17.6 0 32 14.4 32 32zM288 96c-17.6 0-32-14.4-32-32s14.4-32 32-32h512c17.6 0 32 14.4 32 32s-14.4 32-32 32h-512zM129.6 96c-17.6 0-32-14.4-32-32s14.4-32 32-32h62.4c17.6 0 32 14.4 32 32s-14.4 32-32 32h-62.4z" />
<glyph unicode="&#xe92e;" glyph-name="full-moon-1-f" horiz-adv-x="640" d="M640 448c0-176.731-143.269-320-320-320s-320 143.269-320 320c0 176.731 143.269 320 320 320s320-143.269 320-320z" />
<glyph unicode="&#xe92f;" glyph-name="full-moon-1" horiz-adv-x="704" d="M0 448c0-193.6 158.4-352 352-352s352 158.4 352 352-158.4 352-352 352-352-158.4-352-352zM352 736c158.4 0 288-129.6 288-288s-129.6-288-288-288-288 129.6-288 288 129.6 288 288 288z" />
<glyph unicode="&#xe930;" glyph-name="full-moon-2-f" horiz-adv-x="640" d="M320 768c-176 0-320-144-320-320s144-320 320-320c176 0 320 144 320 320s-144 320-320 320zM214.4 489.6c-6.4-6.4-14.4-9.6-22.4-9.6s-16 3.2-22.4 9.6c-6.4 4.8-9.6 12.8-9.6 22.4 0 8 3.2 16 9.6 22.4 11.2 12.8 33.6 12.8 44.8 0 6.4-6.4 9.6-14.4 9.6-22.4s-3.2-17.6-9.6-22.4zM342.4 617.6c-6.4-6.4-14.4-9.6-22.4-9.6s-16 3.2-22.4 9.6c-6.4 4.8-9.6 12.8-9.6 22.4 0 8 3.2 16 9.6 22.4 11.2 12.8 33.6 12.8 44.8 0 6.4-6.4 9.6-14.4 9.6-22.4 0-9.6-3.2-17.6-9.6-22.4zM502.4 521.6c-6.4-6.4-14.4-9.6-22.4-9.6s-16 3.2-22.4 9.6c-6.4 4.8-9.6 12.8-9.6 22.4 0 8 3.2 16 9.6 22.4 12.8 12.8 33.6 12.8 44.8 0 6.4-6.4 9.6-14.4 9.6-22.4 0-9.6-3.2-17.6-9.6-22.4z" />
<glyph unicode="&#xe931;" glyph-name="full-moon-2" horiz-adv-x="704" d="M0 448c0-193.6 158.4-352 352-352s352 158.4 352 352-158.4 352-352 352c-193.6 0-352-158.4-352-352zM640 448c0-158.4-129.6-288-288-288s-288 129.6-288 288 129.6 288 288 288c158.4 0 288-129.6 288-288zM329.6 662.4c-6.4-6.4-9.6-14.4-9.6-22.4s3.2-16 9.6-22.4c6.4-6.4 14.4-9.6 22.4-9.6s16 3.2 22.4 9.6c6.4 6.4 9.6 14.4 9.6 22.4s-3.2 16-9.6 22.4c-11.2 11.2-33.6 11.2-44.8 0zM512 512c8 0 16 3.2 22.4 9.6s9.6 14.4 9.6 22.4c0 8-3.2 16-9.6 22.4-12.8 11.2-33.6 11.2-44.8 0-6.4-6.4-9.6-14.4-9.6-22.4s3.2-16 9.6-22.4c6.4-6.4 14.4-9.6 22.4-9.6zM201.6 534.4c-6.4-6.4-9.6-14.4-9.6-22.4s3.2-16 9.6-22.4c6.4-6.4 14.4-9.6 22.4-9.6s16 3.2 22.4 9.6c6.4 6.4 9.6 14.4 9.6 22.4s-3.2 16-9.6 22.4c-11.2 11.2-33.6 11.2-44.8 0z" />
<glyph unicode="&#xe932;" glyph-name="full-moon-3-f" horiz-adv-x="960" d="M480 928c-265.6 0-480-214.4-480-480s214.4-480 480-480c265.6 0 480 214.4 480 480s-214.4 480-480 480zM257.6 432c-27.2 0-48 20.8-48 48s20.8 48 48 48c27.2 0 48-20.8 48-48 0-25.6-22.4-48-48-48zM544 720c-27.2 0-48 20.8-48 48s20.8 48 48 48 48-20.8 48-48-20.8-48-48-48zM736 528c-27.2 0-48 20.8-48 48s20.8 48 48 48 48-20.8 48-48c0-27.2-20.8-48-48-48z" />
<glyph unicode="&#xe933;" glyph-name="full-moon-3" d="M512 960c-281.6 0-512-230.4-512-512s230.4-512 512-512 512 230.4 512 512-230.4 512-512 512zM512 0c-246.4 0-448 201.6-448 448s201.6 448 448 448 448-201.6 448-448-201.6-448-448-448zM289.6 528c-27.2 0-48-20.8-48-48s20.8-48 48-48 48 20.8 48 48c0 27.2-22.4 48-48 48zM768 624c-27.2 0-48-20.8-48-48s20.8-48 48-48 48 20.8 48 48c0 25.6-20.8 48-48 48zM576 816c-27.2 0-48-20.8-48-48s20.8-48 48-48 48 20.8 48 48c0 25.6-20.8 48-48 48z" />
<glyph unicode="&#xe934;" glyph-name="hail-1-f" horiz-adv-x="960" d="M752 768c-3.2 0-4.8 0-8 0-43.2 94.4-137.6 160-248 160-136 0-249.6-100.8-268.8-232-16 4.8-33.6 8-51.2 8-97.6 0-176-78.4-176-176s78.4-176 176-176h574.4c0 0 1.6 0 1.6 0 115.2 0 208 92.8 208 208s-92.8 208-208 208zM720 288c-17.6 0-32-14.4-32-32v-160c0-17.6 14.4-32 32-32s32 14.4 32 32v160c0 17.6-14.4 32-32 32zM560 288c-17.6 0-32-14.4-32-32v-64c0-17.6 14.4-32 32-32s32 14.4 32 32v64c0 17.6-14.4 32-32 32zM400 288c-17.6 0-32-14.4-32-32v-160c0-17.6 14.4-32 32-32s32 14.4 32 32v160c0 17.6-14.4 32-32 32zM240 128c17.6 0 32 14.4 32 32v96c0 17.6-14.4 32-32 32s-32-14.4-32-32v-96c0-17.6 14.4-32 32-32zM217.6 86.4c-6.4-6.4-9.6-14.4-9.6-22.4s3.2-16 9.6-22.4c6.4-6.4 14.4-9.6 22.4-9.6s16 3.2 22.4 9.6c6.4 6.4 9.6 14.4 9.6 22.4s-3.2 16-9.6 22.4c-11.2 12.8-33.6 12.8-44.8 0zM377.6 22.4c-6.4-4.8-9.6-14.4-9.6-22.4s3.2-16 9.6-22.4c6.4-6.4 14.4-9.6 22.4-9.6s16 3.2 22.4 9.6c6.4 6.4 9.6 14.4 9.6 22.4s-3.2 16-9.6 22.4c-11.2 12.8-33.6 12.8-44.8 0zM537.6 118.4c-6.4-6.4-9.6-14.4-9.6-22.4s3.2-16 9.6-22.4c6.4-6.4 14.4-9.6 22.4-9.6s16 3.2 22.4 9.6c6.4 6.4 9.6 14.4 9.6 22.4s-3.2 17.6-9.6 22.4c-11.2 11.2-33.6 12.8-44.8 0zM720 32c-17.6 0-32-14.4-32-32v0c0-17.6 14.4-32 32-32s32 14.4 32 32c0 17.6-14.4 32-32 32z" />
<glyph unicode="&#xe935;" glyph-name="hail-1" d="M795.2 800c-51.2 97.6-155.2 160-267.2 160-137.6 0-259.2-94.4-292.8-225.6-9.6 1.6-17.6 1.6-27.2 1.6-115.2 0-208-92.8-208-208s92.8-208 208-208h576c132.8 0 240 107.2 240 240 0 128-100.8 233.6-228.8 240zM785.6 384h-577.6c-80 0-144 64-144 144s64 144 144 144c14.4 0 28.8-1.6 41.6-6.4l35.2-11.2 4.8 36.8c19.2 116.8 120 204.8 238.4 204.8 94.4 0 180.8-56 219.2-142.4l9.6-19.2 25.6 1.6c1.6 0 1.6 0 3.2 0 97.6 0 176-78.4 176-176s-80-176-176-176zM736 32c17.6 0 32 14.4 32 32v160c0 17.6-14.4 32-32 32s-32-14.4-32-32v-160c0-17.6 14.4-32 32-32zM576 256c-17.6 0-32-14.4-32-32v-64c0-17.6 14.4-32 32-32s32 14.4 32 32v64c0 17.6-14.4 32-32 32zM416 32c17.6 0 32 14.4 32 32v160c0 17.6-14.4 32-32 32s-32-14.4-32-32v-160c0-17.6 14.4-32 32-32zM256 256c-17.6 0-32-14.4-32-32v-96c0-17.6 14.4-32 32-32s32 14.4 32 32v96c0 17.6-14.4 32-32 32zM233.6 54.4c-6.4-4.8-9.6-14.4-9.6-22.4s3.2-16 9.6-22.4c6.4-6.4 14.4-9.6 22.4-9.6s16 3.2 22.4 9.6c6.4 6.4 9.6 14.4 9.6 22.4s-3.2 16-9.6 22.4c-11.2 12.8-33.6 12.8-44.8 0zM393.6-54.4c6.4-6.4 14.4-9.6 22.4-9.6s16 3.2 22.4 9.6c6.4 6.4 9.6 14.4 9.6 22.4s-3.2 16-9.6 22.4c-12.8 11.2-33.6 11.2-44.8 0-6.4-4.8-9.6-14.4-9.6-22.4s3.2-16 9.6-22.4zM553.6 86.4c-6.4-6.4-9.6-14.4-9.6-22.4s3.2-16 9.6-22.4c6.4-6.4 14.4-9.6 22.4-9.6s16 3.2 22.4 9.6c6.4 6.4 9.6 14.4 9.6 22.4s-3.2 16-9.6 22.4c-11.2 12.8-33.6 12.8-44.8 0zM713.6-54.4c6.4-6.4 14.4-9.6 22.4-9.6s16 3.2 22.4 9.6c6.4 6.4 9.6 14.4 9.6 22.4s-3.2 16-9.6 22.4c-12.8 11.2-33.6 11.2-44.8 0-6.4-4.8-9.6-14.4-9.6-22.4s3.2-16 9.6-22.4z" />
<glyph unicode="&#xe936;" glyph-name="hail-2-f" horiz-adv-x="960" d="M752 768c-3.2 0-4.8 0-8 0-43.2 94.4-137.6 160-248 160-136 0-249.6-100.8-268.8-232-16 4.8-33.6 8-51.2 8-97.6 0-176-78.4-176-176s78.4-176 176-176h574.4c0 0 1.6 0 1.6 0 115.2 0 208 92.8 208 208s-92.8 208-208 208zM544 128c17.6 0 32 14.4 32 32v96c0 17.6-14.4 32-32 32s-32-14.4-32-32v-96c0-17.6 14.4-32 32-32zM416 64c17.6 0 32 14.4 32 32v160c0 17.6-14.4 32-32 32s-32-14.4-32-32v-160c0-17.6 14.4-32 32-32zM320 0v256c0 17.6-14.4 32-32 32s-32-14.4-32-32v-166.4c-36.8 27.2-83.2 41.6-129.6 36.8-17.6-1.6-30.4-17.6-28.8-35.2s17.6-30.4 35.2-28.8c54.4 4.8 105.6-25.6 128-75.2 0 0 0 0 0 0 1.6-1.6 3.2-4.8 4.8-6.4 0 0 1.6-1.6 1.6-1.6 1.6-1.6 3.2-3.2 6.4-4.8 0 0 0 0 1.6 0 1.6-1.6 4.8-1.6 6.4-3.2 0 0 1.6 0 1.6 0 3.2 0 4.8-1.6 8-1.6 0 0 0 0 0 0 1.6 0 1.6 0 3.2 0s3.2 0 3.2 0c0 0 0 0 1.6 0s3.2 1.6 4.8 1.6c0 0 0 0 0 0s1.6 0 1.6 1.6c1.6 0 1.6 1.6 3.2 1.6s1.6 1.6 1.6 1.6c0 0 1.6 1.6 1.6 1.6s1.6 1.6 1.6 3.2c0 1.6 1.6 1.6 1.6 3.2s1.6 1.6 1.6 3.2c0 1.6 1.6 1.6 1.6 3.2s0 1.6 1.6 3.2c0 1.6 0 1.6 1.6 3.2 0 1.6 0 3.2 0 3.2-1.6-1.6-1.6 0-1.6 0v0c0 0 0 0 0 0zM833.6 126.4c-48 3.2-92.8-9.6-129.6-36.8v166.4c0 17.6-14.4 32-32 32s-32-14.4-32-32v-256c0 0 0 0 0 0v0c0 0 0-1.6 0-1.6 0-1.6 0-3.2 0-3.2 0-1.6 0-1.6 1.6-3.2 0-1.6 0-1.6 1.6-3.2 0-1.6 1.6-1.6 1.6-3.2s1.6-1.6 1.6-3.2c0-1.6 1.6-1.6 1.6-3.2s1.6-1.6 1.6-3.2c0 0 1.6-1.6 1.6-1.6s1.6-1.6 1.6-1.6c1.6 0 1.6-1.6 3.2-1.6 0 0 1.6 0 1.6-1.6 0 0 0 0 0 0 1.6 0 3.2-1.6 4.8-1.6 0 0 0 0 1.6 0s1.6 0 3.2 0 1.6 0 3.2 0c0 0 0 0 0 0 3.2 0 4.8 0 8 1.6 0 0 1.6 0 1.6 0 1.6 0 4.8 1.6 6.4 3.2 0 0 0 0 1.6 0 1.6 1.6 4.8 3.2 6.4 4.8 0 0 1.6 1.6 1.6 1.6 1.6 1.6 3.2 4.8 4.8 6.4 0 0 0 0 0 0 22.4 49.6 73.6 80 128 75.2 17.6-1.6 33.6 11.2 35.2 28.8 0 19.2-12.8 35.2-30.4 36.8zM393.6 22.4c-6.4-6.4-9.6-14.4-9.6-22.4s3.2-16 9.6-22.4c6.4-6.4 14.4-9.6 22.4-9.6s16 3.2 22.4 9.6c6.4 6.4 9.6 14.4 9.6 22.4s-3.2 16-9.6 22.4c-11.2 12.8-33.6 12.8-44.8 0zM521.6 86.4c-6.4-6.4-9.6-14.4-9.6-22.4s3.2-16 9.6-22.4c6.4-6.4 14.4-9.6 22.4-9.6s16 3.2 22.4 9.6c6.4 6.4 9.6 14.4 9.6 22.4s-3.2 16-9.6 22.4c-11.2 12.8-33.6 12.8-44.8 0zM950.4 118.4c-11.2 12.8-33.6 12.8-44.8 0-6.4-6.4-9.6-14.4-9.6-22.4s3.2-16 9.6-22.4c6.4-6.4 14.4-9.6 22.4-9.6s16 3.2 22.4 9.6c6.4 6.4 9.6 14.4 9.6 22.4s-3.2 16-9.6 22.4z" />
<glyph unicode="&#xe937;" glyph-name="hail-2" d="M795.2 800c-51.2 97.6-155.2 160-267.2 160-137.6 0-259.2-94.4-292.8-225.6-9.6 1.6-17.6 1.6-27.2 1.6-115.2 0-208-92.8-208-208s92.8-208 208-208h576c132.8 0 240 107.2 240 240 0 128-100.8 233.6-228.8 240zM784 384h-576c-80 0-144 64-144 144s64 144 144 144c14.4 0 28.8-1.6 41.6-6.4l35.2-11.2 4.8 36.8c19.2 116.8 120 204.8 238.4 204.8 94.4 0 180.8-56 219.2-142.4l9.6-19.2 25.6 1.6c1.6 0 1.6 0 3.2 0 97.6 0 176-78.4 176-176-1.6-97.6-80-176-177.6-176zM704 256c-17.6 0-32-14.4-32-32v-256c0 0 0 0 0 0v0c0 0 0-1.6 0-1.6 0-1.6 0-3.2 0-4.8s0-1.6 0-3.2 0-1.6 1.6-3.2c0-1.6 1.6-1.6 1.6-3.2s1.6-1.6 1.6-3.2c0-1.6 1.6-1.6 1.6-1.6 0-1.6 1.6-1.6 1.6-3.2 0 0 1.6-1.6 1.6-1.6s1.6-1.6 1.6-1.6c1.6 0 1.6-1.6 3.2-1.6 0 0 1.6 0 1.6-1.6 0 0 0 0 0 0 1.6 0 3.2-1.6 4.8-1.6 0 0 0 0 1.6 0s1.6 0 3.2 0 1.6 0 3.2 0c0 0 0 0 0 0 3.2 0 4.8 0 8 1.6 0 0 1.6 0 1.6 0 1.6 0 4.8 1.6 6.4 3.2 0 0 0 0 1.6 0 1.6 1.6 4.8 3.2 6.4 4.8 0 0 1.6 1.6 1.6 1.6 1.6 1.6 3.2 4.8 4.8 6.4 0 0 0 0 0 0 22.4 49.6 73.6 80 128 75.2 17.6-1.6 33.6 11.2 35.2 28.8s-11.2 33.6-28.8 35.2c-48 3.2-92.8-9.6-129.6-36.8v168c0 17.6-14.4 32-32 32zM608 128v96c0 17.6-14.4 32-32 32s-32-14.4-32-32v-96c0-17.6 14.4-32 32-32s32 14.4 32 32zM480 64v160c0 17.6-14.4 32-32 32s-32-14.4-32-32v-160c0-17.6 14.4-32 32-32s32 14.4 32 32zM320 256c-17.6 0-32-14.4-32-32v-166.4c-36.8 27.2-83.2 41.6-129.6 36.8-17.6-1.6-30.4-17.6-28.8-35.2s17.6-30.4 35.2-28.8c54.4 4.8 105.6-25.6 128-75.2 0 0 0 0 0 0 1.6-1.6 3.2-4.8 4.8-6.4 0 0 1.6-1.6 1.6-1.6 1.6-1.6 3.2-3.2 6.4-4.8 0 0 0 0 1.6 0 1.6-1.6 4.8-1.6 6.4-3.2 0 0 1.6 0 1.6 0 3.2 0 4.8-1.6 8-1.6 0 0 0 0 0 0 1.6 0 1.6 0 3.2 0s3.2 0 3.2 0c0 0 0 0 1.6 0s3.2 1.6 4.8 1.6c0 0 0 0 0 0s1.6 0 1.6 1.6c1.6 0 1.6 1.6 3.2 1.6s1.6 1.6 1.6 1.6c0 0 1.6 1.6 1.6 1.6s1.6 1.6 1.6 3.2c0 0 1.6 1.6 1.6 1.6 0 1.6 1.6 1.6 1.6 3.2s1.6 1.6 1.6 3.2c0 1.6 0 1.6 1.6 3.2 0 1.6 0 1.6 1.6 3.2 0 1.6 0 3.2 0 3.2s0 1.6 0 1.6v0c0 0 0 0 0 0v256c-1.6 17.6-16 32-33.6 32zM425.6-54.4c6.4-6.4 14.4-9.6 22.4-9.6s17.6 3.2 22.4 9.6c6.4 6.4 9.6 14.4 9.6 22.4s-3.2 16-9.6 22.4c-11.2 11.2-33.6 11.2-44.8 0-6.4-6.4-9.6-14.4-9.6-22.4s3.2-16 9.6-22.4zM553.6 9.6c6.4-6.4 14.4-9.6 22.4-9.6s16 3.2 22.4 9.6c6.4 6.4 9.6 14.4 9.6 22.4s-3.2 16-9.6 22.4c-11.2 11.2-33.6 11.2-44.8 0-6.4-6.4-9.6-14.4-9.6-22.4s3.2-16 9.6-22.4zM982.4 41.6c6.4 6.4 9.6 14.4 9.6 22.4s-3.2 16-9.6 22.4c-12.8 12.8-33.6 12.8-44.8 0-6.4-6.4-9.6-14.4-9.6-22.4s3.2-16 9.6-22.4c6.4-6.4 14.4-9.6 22.4-9.6s16 3.2 22.4 9.6z" />
<glyph unicode="&#xe938;" glyph-name="hail-day-1-f" horiz-adv-x="960" d="M800 192c-17.6 0-32-14.4-32-32v-96c0-17.6 14.4-32 32-32s32 14.4 32 32v96c0 17.6-14.4 32-32 32zM672 192c-17.6 0-32-14.4-32-32v-32c0-17.6 14.4-32 32-32s32 14.4 32 32v32c0 17.6-14.4 32-32 32zM544 192c-17.6 0-32-14.4-32-32v-96c0-17.6 14.4-32 32-32s32 14.4 32 32v96c0 17.6-14.4 32-32 32zM416 192c-17.6 0-32-14.4-32-32v-32c0-17.6 14.4-32 32-32s32 14.4 32 32v32c0 17.6-14.4 32-32 32zM352 816c17.6 0 32 14.4 32 32v80c0 17.6-14.4 32-32 32s-32-14.4-32-32v-80c0-17.6 14.4-32 32-32zM144 608c0 17.6-14.4 32-32 32h-80c-17.6 0-32-14.4-32-32s14.4-32 32-32h80c17.6 0 32 14.4 32 32zM164.8 750.4c6.4-6.4 14.4-9.6 22.4-9.6s16 3.2 22.4 9.6c12.8 12.8 12.8 32 0 44.8l-51.2 52.8c-12.8 12.8-32 12.8-44.8 0s-12.8-32 0-44.8l51.2-52.8zM516.8 740.8c8 0 16 3.2 22.4 9.6l52.8 51.2c12.8 12.8 12.8 32 0 44.8s-32 12.8-44.8 0l-52.8-52.8c-12.8-12.8-12.8-32 0-44.8 6.4-4.8 14.4-8 22.4-8zM164.8 465.6l-52.8-52.8c-12.8-12.8-12.8-32 0-44.8 6.4-6.4 14.4-9.6 22.4-9.6s16 3.2 22.4 9.6l52.8 52.8c12.8 12.8 12.8 32 0 44.8s-32 12.8-44.8 0zM800 576c-32 75.2-105.6 128-192 128-110.4 0-200-84.8-208-193.6-4.8 0-11.2 1.6-17.6 1.6-70.4 0-128-57.6-128-128s57.6-128 128-128h416c88 0 160 72 160 160 1.6 88-70.4 160-158.4 160zM460.8 724.8c-28.8 27.2-67.2 43.2-108.8 43.2-88 0-160-72-160-160 0-41.6 16-78.4 40-105.6 28.8 35.2 68.8 62.4 115.2 70.4 19.2 62.4 59.2 116.8 113.6 152zM448 32c0-17.673-14.327-32-32-32s-32 14.327-32 32c0 17.673 14.327 32 32 32s32-14.327 32-32zM576-32c0-17.673-14.327-32-32-32s-32 14.327-32 32c0 17.673 14.327 32 32 32s32-14.327 32-32zM704 32c0-17.673-14.327-32-32-32s-32 14.327-32 32c0 17.673 14.327 32 32 32s32-14.327 32-32zM832-32c0-17.673-14.327-32-32-32s-32 14.327-32 32c0 17.673 14.327 32 32 32s32-14.327 32-32z" />
<glyph unicode="&#xe939;" glyph-name="hail-day-1" horiz-adv-x="992" d="M160 608c0-62.4 30.4-120 80-155.2-9.6-20.8-16-43.2-16-68.8 0-88 72-160 160-160h416c105.6 0 192 86.4 192 192 0 99.2-75.2 180.8-171.2 190.4-40 80-121.6 129.6-212.8 129.6-35.2 0-67.2-8-97.6-20.8-35.2 52.8-94.4 84.8-158.4 84.8-105.6 0-192-86.4-192-192zM608 672c72 0 134.4-43.2 163.2-108.8l8-19.2h20.8c70.4 0 128-57.6 128-128s-57.6-128-128-128h-416c-52.8 0-96 43.2-96 96s43.2 96 96 96c3.2 0 6.4 0 9.6-1.6l36.8-4.8 1.6 33.6c8 92.8 84.8 164.8 176 164.8zM456 681.6c-41.6-33.6-72-83.2-83.2-137.6-36.8-3.2-68.8-17.6-96-40-32 24-52.8 62.4-52.8 104 0 70.4 57.6 128 128 128 41.6 0 80-20.8 104-54.4zM384 864v64c0 17.6-14.4 32-32 32s-32-14.4-32-32v-64c0-17.6 14.4-32 32-32s32 14.4 32 32zM0 608c0-17.6 14.4-32 32-32h64c17.6 0 32 14.4 32 32s-14.4 32-32 32h-64c-17.6 0-32-14.4-32-32zM112 801.6l36.8-36.8c6.4-6.4 14.4-9.6 22.4-9.6s16 3.2 22.4 9.6c12.8 12.8 12.8 32 0 44.8l-35.2 38.4c-12.8 12.8-32 12.8-44.8 0-14.4-12.8-14.4-33.6-1.6-46.4zM510.4 766.4c6.4-6.4 14.4-9.6 22.4-9.6s16 3.2 22.4 9.6l36.8 35.2c12.8 12.8 12.8 32 0 44.8s-32 12.8-44.8 0l-36.8-36.8c-12.8-11.2-12.8-30.4 0-43.2zM112 368c6.4-6.4 14.4-9.6 22.4-9.6s16 3.2 22.4 9.6l36.8 36.8c12.8 12.8 12.8 32 0 44.8s-32 12.8-44.8 0l-36.8-36.8c-12.8-11.2-12.8-32 0-44.8zM800 32c17.6 0 32 14.4 32 32v96c0 17.6-14.4 32-32 32s-32-14.4-32-32v-96c0-17.6 14.4-32 32-32zM672 192c-17.6 0-32-14.4-32-32v-32c0-17.6 14.4-32 32-32s32 14.4 32 32v32c0 17.6-14.4 32-32 32zM544 192c-17.6 0-32-14.4-32-32v-96c0-17.6 14.4-32 32-32s32 14.4 32 32v96c0 17.6-14.4 32-32 32zM416 96c17.6 0 32 14.4 32 32v32c0 17.6-14.4 32-32 32s-32-14.4-32-32v-32c0-17.6 14.4-32 32-32zM393.6 9.6c6.4-6.4 14.4-9.6 22.4-9.6s16 3.2 22.4 9.6c6.4 6.4 9.6 14.4 9.6 22.4s-3.2 16-9.6 22.4c-12.8 11.2-33.6 11.2-44.8 0-6.4-4.8-9.6-14.4-9.6-22.4s3.2-16 9.6-22.4zM521.6-9.6c-6.4-4.8-9.6-14.4-9.6-22.4s3.2-16 9.6-22.4c6.4-6.4 14.4-9.6 22.4-9.6s16 3.2 22.4 9.6c6.4 6.4 9.6 14.4 9.6 22.4s-3.2 16-9.6 22.4c-12.8 12.8-33.6 12.8-44.8 0zM649.6 54.4c-6.4-4.8-9.6-14.4-9.6-22.4s3.2-16 9.6-22.4c6.4-6.4 14.4-9.6 22.4-9.6s16 3.2 22.4 9.6c6.4 6.4 9.6 14.4 9.6 22.4s-3.2 16-9.6 22.4c-12.8 12.8-33.6 12.8-44.8 0zM777.6-54.4c6.4-6.4 14.4-9.6 22.4-9.6s16 3.2 22.4 9.6c6.4 6.4 9.6 14.4 9.6 22.4s-3.2 16-9.6 22.4c-12.8 11.2-33.6 11.2-44.8 0-6.4-4.8-9.6-14.4-9.6-22.4s3.2-16 9.6-22.4z" />
<glyph unicode="&#xe93a;" glyph-name="hail-day-2-f" horiz-adv-x="976" d="M528 192c17.6 0 32-14.4 32-32v-32c0-17.6-14.4-32-32-32s-32 14.4-32 32v32c0 17.6 14.4 32 32 32zM656 192c17.6 0 32-14.4 32-32v-96c0-17.6-14.4-32-32-32s-32 14.4-32 32v96c0 17.6 14.4 32 32 32zM752-32v192c0 17.6 14.4 32 32 32s32-14.4 32-32v-102.4c36.8 27.2 83.2 41.6 129.6 36.8 17.6-1.6 30.4-17.6 28.8-35.2s-16-30.4-35.2-28.8c-54.4 4.8-105.6-25.6-128-75.2 0 0 0 0 0 0-1.6-1.6-3.2-4.8-4.8-6.4 0 0-1.6-1.6-1.6-1.6-1.6-1.6-3.2-3.2-6.4-4.8 0 0 0 0-1.6 0-1.6-1.6-4.8-1.6-6.4-3.2 0 0-1.6 0-1.6 0-3.2 0-4.8-1.6-8-1.6v0 0c0 0 0 0 0 0-1.6 0-4.8 0-6.4 0 0 0 0 0 0 0-1.6 0-3.2 1.6-6.4 1.6 0 0 0 0 0 0s-1.6 0-1.6 1.6c-1.6 0-3.2 1.6-3.2 1.6-1.6 0-1.6 1.6-1.6 1.6-1.6 0-1.6 1.6-3.2 1.6 0 0-1.6 1.6-1.6 3.2s-1.6 1.6-1.6 3.2c0 1.6-1.6 1.6-1.6 3.2s-1.6 1.6-1.6 3.2c0 1.6 0 1.6-1.6 3.2 0 1.6 0 1.6 0 3.2s0 3.2 0 4.8c1.6-3.2 1.6-3.2 1.6-1.6v0c0 0 0 0 0 0zM238.4 94.4c48 4.8 92.8-9.6 129.6-36.8v102.4c0 17.6 14.4 32 32 32s32-14.4 32-32v-192c0 0 0 0 0 0v0c0 0 0-1.6 0-1.6 0-1.6 0-3.2 0-4.8s0-1.6 0-3.2 0-1.6-1.6-3.2c0-1.6-1.6-1.6-1.6-3.2s-1.6-1.6-1.6-3.2c0-1.6-1.6-1.6-1.6-3.2s-1.6-1.6-1.6-3.2c0 0-1.6-1.6-3.2-1.6 0 0-1.6-1.6-1.6-1.6-1.6-1.6-3.2-1.6-3.2-1.6s-1.6 0-1.6-1.6c0 0 0 0 0 0-1.6-1.6-3.2-1.6-6.4-1.6 0 0 0 0 0 0-1.6 0-3.2 0-6.4 0 0 0 0 0 0 0v0 0c-3.2 0-4.8 0-8 1.6 0 0-1.6 0-1.6 0-1.6 0-4.8 1.6-6.4 3.2 0 0 0 0-1.6 0-1.6 1.6-4.8 3.2-6.4 4.8 0 0-1.6 1.6-1.6 1.6-1.6 1.6-3.2 4.8-4.8 6.4 0 0 0 0 0 0-22.4 49.6-73.6 80-128 75.2-17.6-1.6-33.6 11.2-35.2 28.8 0 20.8 12.8 36.8 30.4 38.4zM678.4-9.6c6.4-6.4 9.6-14.4 9.6-22.4s-3.2-16-9.6-22.4c-6.4-6.4-14.4-9.6-22.4-9.6s-16 3.2-22.4 9.6c-6.4 6.4-9.6 14.4-9.6 22.4s3.2 16 9.6 22.4c12.8 11.2 33.6 11.2 44.8 0zM550.4 54.4c6.4-6.4 9.6-14.4 9.6-22.4s-3.2-16-9.6-22.4c-6.4-6.4-14.4-9.6-22.4-9.6s-16 3.2-22.4 9.6c-6.4 6.4-9.6 14.4-9.6 22.4s3.2 16 9.6 22.4c12.8 11.2 33.6 11.2 44.8 0zM121.6 86.4c11.2 12.8 33.6 12.8 44.8 0 6.4-6.4 9.6-14.4 9.6-22.4s-3.2-16-9.6-22.4c-6.4-6.4-14.4-9.6-22.4-9.6s-16 3.2-22.4 9.6c-6.4 6.4-9.6 14.4-9.6 22.4s3.2 16 9.6 22.4zM352 816c17.6 0 32 14.4 32 32v80c0 17.6-14.4 32-32 32s-32-14.4-32-32v-80c0-17.6 14.4-32 32-32zM144 608c0 17.6-14.4 32-32 32h-80c-17.6 0-32-14.4-32-32s14.4-32 32-32h80c17.6 0 32 14.4 32 32zM164.8 750.4c6.4-6.4 14.4-9.6 22.4-9.6s16 3.2 22.4 9.6c12.8 12.8 12.8 32 0 44.8l-51.2 52.8c-12.8 12.8-32 12.8-44.8 0s-12.8-32 0-44.8l51.2-52.8zM516.8 740.8c8 0 16 3.2 22.4 9.6l52.8 52.8c12.8 12.8 12.8 32 0 44.8s-32 12.8-44.8 0l-52.8-52.8c-12.8-12.8-12.8-32 0-44.8 6.4-6.4 14.4-9.6 22.4-9.6zM164.8 465.6l-52.8-52.8c-12.8-12.8-12.8-32 0-44.8 6.4-6.4 14.4-9.6 22.4-9.6s16 3.2 22.4 9.6l52.8 52.8c12.8 12.8 12.8 32 0 44.8s-32 12.8-44.8 0zM800 576c-32 75.2-105.6 128-192 128-110.4 0-200-84.8-208-193.6-4.8 0-11.2 1.6-17.6 1.6-70.4 0-128-57.6-128-128s57.6-128 128-128h416c88 0 160 72 160 160 1.6 89.6-70.4 160-158.4 160zM460.8 724.8c-28.8 27.2-67.2 43.2-108.8 43.2-88 0-160-72-160-160 0-41.6 16-78.4 40-105.6 28.8 35.2 68.8 62.4 115.2 70.4 19.2 64 59.2 116.8 113.6 152z" />
<glyph unicode="&#xe93b;" glyph-name="hail-day-2" d="M300.8 899.2v-60.8c0-16 12.8-30.4 30.4-30.4 16 0 30.4 12.8 30.4 30.4v60.8c0 16-12.8 30.4-30.4 30.4-16 0-30.4-12.8-30.4-30.4zM120 598.4c0 16-12.8 30.4-30.4 30.4h-59.2c-16 0-30.4-12.8-30.4-30.4s12.8-30.4 30.4-30.4h60.8c16 0 28.8 14.4 28.8 30.4zM182.4 747.2c11.2 11.2 11.2 30.4 0 43.2l-33.6 33.6c-11.2 11.2-30.4 11.2-43.2 0-11.2-11.2-11.2-30.4 0-43.2l33.6-33.6c6.4-6.4 12.8-9.6 20.8-9.6 9.6 1.6 16 3.2 22.4 9.6zM513.6 824l-33.6-33.6c-11.2-11.2-11.2-30.4 0-43.2 6.4-6.4 12.8-9.6 20.8-9.6s16 3.2 20.8 9.6l33.6 33.6c11.2 11.2 11.2 30.4 0 43.2-9.6 11.2-28.8 11.2-41.6 0zM105.6 372.8c6.4-6.4 12.8-9.6 20.8-9.6s16 3.2 20.8 9.6l33.6 33.6c11.2 11.2 11.2 30.4 0 43.2-11.2 11.2-30.4 11.2-43.2 0l-32-33.6c-11.2-12.8-11.2-32 0-43.2zM772.8 598.4c-38.4 73.6-115.2 121.6-200 121.6-32 0-64-6.4-91.2-19.2-33.6 49.6-89.6 80-150.4 80-99.2 0-180.8-81.6-180.8-180.8 0-57.6 28.8-112 75.2-145.6-9.6-19.2-14.4-41.6-14.4-64 0-83.2 67.2-150.4 150.4-150.4h392c99.2 0 180.8 81.6 180.8 180.8 0 89.6-70.4 166.4-161.6 177.6zM211.2 598.4c0 67.2 54.4 120 120 120 40 0 75.2-19.2 97.6-51.2-40-32-67.2-78.4-78.4-129.6-33.6-1.6-65.6-16-89.6-38.4-30.4 24-49.6 60.8-49.6 99.2zM753.6 297.6h-392c-49.6 0-89.6 40-89.6 89.6s40 89.6 89.6 89.6c3.2 0 6.4 0 8-1.6l35.2-4.8 1.6 32c6.4 86.4 78.4 153.6 164.8 153.6 67.2 0 126.4-40 153.6-102.4l8-19.2h20.8c65.6 0 120-54.4 120-120 0-62.4-54.4-116.8-120-116.8zM632 116.8c16 0 30.4 12.8 30.4 30.4v30.4c0 16-12.8 30.4-30.4 30.4-16 0-30.4-12.8-30.4-30.4v-30.4c1.6-17.6 14.4-30.4 30.4-30.4zM512 56c16 0 30.4 12.8 30.4 30.4v89.6c0 16-12.8 30.4-30.4 30.4-16 0-30.4-12.8-30.4-30.4v-89.6c0-16 14.4-30.4 30.4-30.4zM364.8-16c0 0 0 0 0 0 1.6-3.2 3.2-4.8 4.8-6.4 0 0 0-1.6 1.6-1.6 1.6-1.6 3.2-3.2 6.4-4.8 0 0 0 0 1.6 0 1.6-1.6 3.2-1.6 6.4-3.2 0 0 1.6 0 1.6 0 1.6 0 4.8-1.6 8-1.6 0 0 0 0 0 0 1.6 0 1.6 0 3.2 0s1.6 0 3.2 0c0 0 0 0 0 0 1.6 0 3.2 1.6 4.8 1.6 0 0 0 0 0 0s1.6 0 1.6 1.6c1.6 0 1.6 1.6 3.2 1.6s1.6 1.6 1.6 1.6c0 0 1.6 1.6 1.6 1.6s1.6 1.6 1.6 3.2c0 0 1.6 1.6 1.6 1.6 0 1.6 1.6 1.6 1.6 3.2s1.6 1.6 1.6 3.2c0 1.6 0 1.6 1.6 3.2 0 1.6 0 1.6 0 3.2s0 3.2 0 3.2c0 0 0 1.6 0 1.6v0c0 0 0 0 0 0v180.8c0 16-12.8 30.4-30.4 30.4-16 0-30.4-12.8-30.4-30.4v-96c-35.2 25.6-78.4 38.4-123.2 35.2-16-1.6-28.8-16-27.2-32s16-28.8 32-27.2c51.2 1.6 100.8-27.2 121.6-73.6zM932.8 83.2c1.6 16-11.2 30.4-27.2 32-44.8 3.2-88-9.6-123.2-35.2v96c0 16-12.8 30.4-30.4 30.4-16 0-30.4-12.8-30.4-30.4v-180.8c0 0 0 0 0 0v0c0 0 0-1.6 0-1.6 0-1.6 0-3.2 0-3.2 0-1.6 0-1.6 0-3.2s0-1.6 1.6-3.2c0-1.6 1.6-1.6 1.6-3.2s1.6-1.6 1.6-3.2c0 0 1.6-1.6 1.6-1.6 0-1.6 1.6-1.6 1.6-3.2 0 0 1.6-1.6 1.6-1.6s1.6-1.6 1.6-1.6c1.6 0 1.6-1.6 3.2-1.6 0 0 1.6 0 1.6-1.6 0 0 0 0 0 0 1.6 0 3.2-1.6 4.8-1.6 0 0 0 0 1.6 0 0 0 1.6 0 1.6 0 1.6 0 3.2 0 3.2 0s0 0 0 0c3.2 0 4.8 0 8 1.6 0 0 1.6 0 1.6 0 1.6 0 4.8 1.6 6.4 3.2 0 0 0 0 1.6 0 1.6 1.6 3.2 3.2 6.4 4.8 0 0 0 1.6 1.6 1.6 1.6 1.6 3.2 3.2 3.2 6.4 0 0 0 0 0 0 20.8 46.4 68.8 75.2 120 70.4 19.2 1.6 33.6 12.8 35.2 30.4zM491.2-24c4.8-4.8 12.8-9.6 20.8-9.6s16 3.2 20.8 9.6c6.4 4.8 9.6 12.8 9.6 20.8s-3.2 16-9.6 20.8c-11.2 11.2-32 11.2-43.2 0-4.8-4.8-8-12.8-8-20.8s3.2-16 9.6-20.8zM611.2 35.2c4.8-4.8 12.8-9.6 20.8-9.6s16 3.2 20.8 9.6c6.4 4.8 9.6 12.8 9.6 20.8s-3.2 16-9.6 20.8c-11.2 11.2-32 11.2-43.2 0-4.8-4.8-8-12.8-8-20.8 0-6.4 3.2-14.4 9.6-20.8zM972.8 107.2c-4.8-4.8-8-12.8-8-20.8s3.2-16 9.6-20.8c4.8-4.8 12.8-9.6 20.8-9.6s16 3.2 20.8 9.6c6.4 4.8 9.6 12.8 9.6 20.8s-3.2 16-9.6 20.8c-12.8 11.2-32 11.2-43.2 0z" />
<glyph unicode="&#xe93c;" glyph-name="hail-full-moon-1-f" horiz-adv-x="800" d="M608 64c-17.6 0-32 14.4-32 32v160c0 17.6 14.4 32 32 32s32-14.4 32-32v-160c0-17.6-14.4-32-32-32zM480 160c-17.6 0-32 14.4-32 32v64c0 17.6 14.4 32 32 32s32-14.4 32-32v-64c0-17.6-14.4-32-32-32zM352 64c-17.6 0-32 14.4-32 32v160c0 17.6 14.4 32 32 32s32-14.4 32-32v-160c0-17.6-14.4-32-32-32zM224 128c-17.6 0-32 14.4-32 32v96c0 17.6 14.4 32 32 32s32-14.4 32-32v-96c0-17.6-14.4-32-32-32zM636.8 668.8c-4.8 0-11.2 0-16 0-32 78.4-110.4 132.8-201.6 132.8-112 0-203.2-80-216-184 0 0-1.6 0-1.6 0-75.2 0-136-59.2-136-131.2s60.8-131.2 136-131.2h436.8c89.6 0 163.2 70.4 163.2 158.4-1.6 83.2-75.2 155.2-164.8 155.2zM150.4 673.6c24 75.2 81.6 134.4 153.6 166.4-27.2 51.2-81.6 88-144 88-88 0-160-72-160-160 0-56 28.8-105.6 72-134.4 22.4 19.2 49.6 32 78.4 40zM256 64c0-17.673-14.327-32-32-32s-32 14.327-32 32c0 17.673 14.327 32 32 32s32-14.327 32-32zM384 0c0-17.673-14.327-32-32-32s-32 14.327-32 32c0 17.673 14.327 32 32 32s32-14.327 32-32zM512 96c0-17.673-14.327-32-32-32s-32 14.327-32 32c0 17.673 14.327 32 32 32s32-14.327 32-32zM640 0c0-17.673-14.327-32-32-32s-32 14.327-32 32c0 17.673 14.327 32 32 32s32-14.327 32-32z" />
<glyph unicode="&#xe93d;" glyph-name="hail-full-moon-1" horiz-adv-x="864" d="M672 224c0 17.6-14.4 32-32 32s-32-14.4-32-32v-160c0-17.6 14.4-32 32-32s32 14.4 32 32v160zM512 128c17.6 0 32 14.4 32 32v64c0 17.6-14.4 32-32 32s-32-14.4-32-32v-64c0-17.6 14.4-32 32-32zM384 32c17.6 0 32 14.4 32 32v160c0 17.6-14.4 32-32 32s-32-14.4-32-32v-160c0-17.6 14.4-32 32-32zM288 224c0 17.6-14.4 32-32 32s-32-14.4-32-32v-96c0-17.6 14.4-32 32-32s32 14.4 32 32v96zM108.8 595.2c-27.2-30.4-44.8-68.8-44.8-112 0-89.6 75.2-163.2 168-163.2h436.8c107.2 0 195.2 86.4 195.2 190.4s-84.8 187.2-192 190.4c-43.2 80-128 131.2-222.4 131.2-25.6 0-51.2-4.8-73.6-11.2-22.4 80-96 139.2-184 139.2-105.6 0-192-86.4-192-192 0-76.8 44.8-142.4 108.8-172.8zM449.6 768c76.8 0 144-44.8 172.8-112l9.6-22.4 24 1.6c4.8 0 8 0 12.8 0 72 0 131.2-56 131.2-126.4 0-68.8-59.2-126.4-131.2-126.4h-436.8c-57.6 0-104 44.8-104 99.2s46.4 99.2 102.4 99.2l32-1.6 3.2 28.8c11.2 92.8 91.2 160 184 160zM192 896c60.8 0 113.6-43.2 124.8-102.4-54.4-33.6-94.4-86.4-110.4-148.8-8-1.6-16-3.2-24-4.8-65.6 4.8-118.4 59.2-118.4 128 0 70.4 57.6 128 128 128zM233.6 54.4c-6.4-6.4-9.6-14.4-9.6-22.4s3.2-16 9.6-22.4c6.4-6.4 14.4-9.6 22.4-9.6s16 3.2 22.4 9.6c6.4 6.4 9.6 14.4 9.6 22.4s-3.2 16-9.6 22.4c-11.2 12.8-33.6 12.8-44.8 0zM384-64c8 0 16 3.2 22.4 9.6s9.6 14.4 9.6 22.4c0 8-3.2 16-9.6 22.4-12.8 11.2-33.6 11.2-44.8 0-6.4-4.8-9.6-14.4-9.6-22.4s3.2-16 9.6-22.4c6.4-6.4 14.4-9.6 22.4-9.6zM512 32c8 0 16 3.2 22.4 9.6s9.6 14.4 9.6 22.4c0 8-3.2 16-9.6 22.4-12.8 11.2-33.6 11.2-44.8 0-6.4-4.8-9.6-14.4-9.6-22.4s3.2-16 9.6-22.4c6.4-6.4 14.4-9.6 22.4-9.6zM617.6-9.6c-6.4-4.8-9.6-14.4-9.6-22.4s3.2-16 9.6-22.4c6.4-6.4 14.4-9.6 22.4-9.6s16 3.2 22.4 9.6c6.4 6.4 9.6 14.4 9.6 22.4s-3.2 16-9.6 22.4c-11.2 12.8-33.6 12.8-44.8 0z" />
<glyph unicode="&#xe93e;" glyph-name="hail-full-moon-2-f" horiz-adv-x="896" d="M480 128c17.6 0 32 14.4 32 32v96c0 17.6-14.4 32-32 32s-32-14.4-32-32v-96c0-17.6 14.4-32 32-32zM352 64c17.6 0 32 14.4 32 32v160c0 17.6-14.4 32-32 32s-32-14.4-32-32v-160c0-17.6 14.4-32 32-32zM256 0v256c0 17.6-14.4 32-32 32s-32-14.4-32-32v-166.4c-36.8 27.2-83.2 41.6-129.6 36.8-17.6-1.6-30.4-17.6-28.8-35.2s16-30.4 35.2-28.8c54.4 4.8 105.6-25.6 128-75.2 0 0 0 0 0 0 1.6-1.6 3.2-4.8 4.8-6.4 0 0 1.6-1.6 1.6-1.6 1.6-1.6 3.2-3.2 6.4-4.8 0 0 0 0 1.6 0 1.6-1.6 4.8-1.6 6.4-3.2 0 0 1.6 0 1.6 0 3.2 0 4.8-1.6 8-1.6 0 0 0 0 0 0 1.6 0 1.6 0 3.2 0s1.6 0 3.2 0c0 0 0 0 1.6 0s3.2 1.6 4.8 1.6c0 0 0 0 0 0s1.6 0 1.6 1.6c1.6 0 1.6 1.6 3.2 1.6s1.6 1.6 3.2 1.6c0 0 1.6 1.6 1.6 1.6 0 1.6 1.6 1.6 1.6 3.2 0 0 1.6 1.6 1.6 1.6 0 1.6 1.6 1.6 1.6 3.2s1.6 1.6 1.6 3.2c0 1.6 0 1.6 1.6 3.2 0 1.6 0 1.6 0 3.2s0 3.2 0 4.8c-1.6-1.6-1.6 0-1.6 0v0c0 0 0 0 0 0zM769.6 126.4c-48 3.2-92.8-9.6-129.6-36.8v166.4c0 17.6-14.4 32-32 32s-32-14.4-32-32v-256c0 0 0 0 0 0v0c0 0 0-1.6 0-1.6 0-1.6 0-3.2 0-4.8s0-1.6 0-3.2 0-1.6 1.6-3.2c0-1.6 1.6-1.6 1.6-3.2s1.6-1.6 1.6-3.2c0-1.6 1.6-1.6 1.6-1.6 0-1.6 1.6-1.6 1.6-3.2 0 0 1.6-1.6 1.6-1.6s1.6-1.6 3.2-1.6c1.6 0 1.6-1.6 3.2-1.6 0 0 1.6 0 1.6-1.6 0 0 0 0 0 0 1.6 0 3.2-1.6 4.8-1.6 0 0 0 0 1.6 0s1.6 0 3.2 0 1.6 0 3.2 0v0c3.2 0 4.8 0 8 1.6 0 0 1.6 0 1.6 0 1.6 0 4.8 1.6 6.4 3.2 0 0 0 0 1.6 0 1.6 1.6 4.8 3.2 6.4 4.8 0 0 1.6 1.6 1.6 1.6 1.6 1.6 3.2 4.8 4.8 6.4 0 0 0 0 0 0 22.4 49.6 73.6 80 128 75.2 17.6-1.6 33.6 11.2 35.2 28.8 0 19.2-12.8 35.2-30.4 36.8zM329.6 22.4c-6.4-6.4-9.6-14.4-9.6-22.4s3.2-16 9.6-22.4c6.4-6.4 14.4-9.6 22.4-9.6s16 3.2 22.4 9.6c6.4 6.4 9.6 14.4 9.6 22.4s-3.2 16-9.6 22.4c-11.2 12.8-33.6 12.8-44.8 0zM457.6 86.4c-6.4-6.4-9.6-14.4-9.6-22.4s3.2-17.6 9.6-22.4c6.4-6.4 14.4-9.6 22.4-9.6s16 3.2 22.4 9.6c6.4 6.4 9.6 14.4 9.6 22.4s-3.2 16-9.6 22.4c-11.2 12.8-33.6 12.8-44.8 0zM886.4 118.4c-12.8 11.2-33.6 11.2-44.8 0-6.4-6.4-9.6-14.4-9.6-22.4s3.2-16 9.6-22.4c6.4-6.4 14.4-9.6 22.4-9.6s16 3.2 22.4 9.6c6.4 6.4 9.6 14.4 9.6 22.4s-3.2 16-9.6 22.4zM636.8 668.8c-4.8 0-11.2 0-16 0-32 78.4-110.4 132.8-201.6 132.8-112 0-203.2-80-216-184 0 0-1.6 0-1.6 0-75.2 0-136-59.2-136-131.2s60.8-131.2 136-131.2h436.8c89.6 0 163.2 70.4 163.2 158.4-1.6 83.2-75.2 155.2-164.8 155.2zM150.4 673.6c24 75.2 81.6 134.4 153.6 166.4-27.2 52.8-81.6 88-144 88-88 0-160-72-160-160 0-56 28.8-105.6 72-134.4 22.4 19.2 49.6 32 78.4 40z" />
<glyph unicode="&#xe93f;" glyph-name="hail-full-moon-2" horiz-adv-x="928" d="M673.6 700.8c-43.2 80-128 131.2-222.4 131.2-25.6 0-51.2-4.8-73.6-11.2-24 80-97.6 139.2-185.6 139.2-105.6 0-192-86.4-192-192 0-76.8 44.8-142.4 108.8-172.8-27.2-28.8-44.8-68.8-44.8-112 0-89.6 75.2-163.2 168-163.2h436.8c108.8 0 195.2 86.4 195.2 190.4s-84.8 187.2-190.4 190.4zM64 768c0 70.4 57.6 128 128 128 60.8 0 113.6-43.2 124.8-102.4-54.4-33.6-94.4-86.4-110.4-148.8-8-1.6-16-3.2-24-4.8-65.6 4.8-118.4 59.2-118.4 128zM668.8 384h-436.8c-57.6 0-104 44.8-104 99.2s46.4 99.2 102.4 99.2h32l3.2 27.2c11.2 89.6 91.2 156.8 184 156.8 76.8 0 144-44.8 172.8-112l9.6-22.4 24 1.6c4.8 0 8 0 12.8 0 72 0 131.2-56 131.2-126.4 0-65.6-57.6-123.2-131.2-123.2zM640 256c-17.6 0-32-14.4-32-32v-256c0 0 0 0 0 0v0c0 0 0-1.6 0-1.6 0-1.6 0-3.2 0-3.2 0-1.6 0-1.6 1.6-3.2 0-1.6 0-1.6 1.6-3.2 0-1.6 1.6-1.6 1.6-3.2s1.6-1.6 1.6-3.2c0-1.6 1.6-1.6 1.6-1.6 0-1.6 1.6-1.6 1.6-3.2 0 0 1.6-1.6 1.6-1.6s1.6-1.6 3.2-1.6c1.6 0 1.6-1.6 3.2-1.6 0 0 1.6 0 1.6-1.6 0 0 0 0 0 0 1.6 0 3.2-1.6 4.8-1.6 0 0 0 0 1.6 0 0 0 1.6 0 1.6 0 1.6 0 3.2 0 4.8 0 0 0 0 0 0 0 3.2 0 4.8 0 8 1.6 0 0 1.6 0 1.6 0 1.6 0 4.8 1.6 6.4 3.2 0 0 0 0 1.6 0 1.6 1.6 4.8 3.2 6.4 4.8 0 0 1.6 1.6 1.6 1.6 1.6 1.6 3.2 4.8 4.8 6.4 0 0 0 0 0 0 22.4 49.6 73.6 80 128 75.2 17.6-1.6 33.6 11.2 35.2 28.8s-11.2 33.6-28.8 35.2c-48 4.8-92.8-9.6-129.6-36.8v166.4c-3.2 17.6-17.6 32-35.2 32zM544 224c0 17.6-14.4 32-32 32s-32-14.4-32-32v-96c0-17.6 14.4-32 32-32s32 14.4 32 32v96zM416 224c0 17.6-14.4 32-32 32s-32-14.4-32-32v-160c0-17.6 14.4-32 32-32s32 14.4 32 32v160zM224 224v-166.4c-36.8 27.2-83.2 41.6-129.6 36.8-17.6-1.6-30.4-17.6-28.8-35.2s17.6-30.4 35.2-28.8c54.4 4.8 105.6-25.6 128-75.2 0 0 0 0 0 0 1.6-1.6 3.2-4.8 4.8-6.4 0 0 1.6-1.6 1.6-1.6 1.6-1.6 3.2-3.2 6.4-4.8 0 0 1.6 0 1.6 0 1.6-1.6 4.8-1.6 6.4-3.2 0 0 1.6 0 1.6 0 3.2 0 4.8-1.6 8-1.6 0 0 0 0 0 0 1.6 0 1.6 0 3.2 0s1.6 0 3.2 0c0 0 0 0 0 0 1.6 0 3.2 1.6 6.4 1.6 0 0 0 0 0 0s1.6 0 1.6 1.6c1.6 0 1.6 1.6 3.2 1.6s1.6 1.6 3.2 1.6c0 0 1.6 1.6 1.6 1.6s1.6 1.6 1.6 3.2c0 0 1.6 1.6 1.6 1.6 0 1.6 1.6 1.6 1.6 3.2s1.6 1.6 1.6 3.2c0 1.6 0 1.6 1.6 3.2 0 1.6 0 1.6 1.6 3.2 0 1.6 0 3.2 0 3.2s0 1.6 0 1.6v0c0 0 0 0 0 0v256c0 17.6-14.4 32-32 32s-35.2-14.4-35.2-32zM873.6 86.4c-6.4-6.4-9.6-14.4-9.6-24 0-8 3.2-16 9.6-22.4s14.4-9.6 22.4-9.6c8 0 16 3.2 22.4 9.6s9.6 14.4 9.6 22.4c0 8-3.2 16-9.6 22.4-12.8 12.8-33.6 12.8-44.8 1.6zM489.6 54.4c-6.4-4.8-9.6-14.4-9.6-22.4s3.2-16 9.6-22.4c6.4-6.4 14.4-9.6 22.4-9.6s16 3.2 22.4 9.6c6.4 6.4 9.6 14.4 9.6 22.4s-3.2 16-9.6 22.4c-12.8 12.8-33.6 12.8-44.8 0zM361.6-9.6c-6.4-4.8-9.6-14.4-9.6-22.4s3.2-16 9.6-22.4c6.4-6.4 14.4-9.6 22.4-9.6s16 3.2 22.4 9.6c6.4 6.4 9.6 14.4 9.6 22.4s-3.2 16-9.6 22.4c-12.8 12.8-33.6 12.8-44.8 0z" />
<glyph unicode="&#xe940;" glyph-name="hail-night-1-f" horiz-adv-x="800" d="M611.2 64c-17.6 0-32 14.4-32 32v160c0 17.6 14.4 32 32 32s32-14.4 32-32v-160c0-17.6-14.4-32-32-32zM483.2 160c-17.6 0-32 14.4-32 32v64c0 17.6 14.4 32 32 32s32-14.4 32-32v-64c0-17.6-14.4-32-32-32zM355.2 64c-17.6 0-32 14.4-32 32v160c0 17.6 14.4 32 32 32s32-14.4 32-32v-160c0-17.6-14.4-32-32-32zM227.2 128c-17.6 0-32 14.4-32 32v96c0 17.6 14.4 32 32 32s32-14.4 32-32v-96c0-17.6-14.4-32-32-32zM636.8 352c89.6 0 163.2 70.4 163.2 158.4s-73.6 158.4-163.2 158.4c-4.8 0-11.2 0-16-1.6-32 78.4-110.4 132.8-201.6 132.8-112 0-203.2-80-216-184 0 0-1.6 0-1.6 0-75.2 0-136-59.2-136-131.2s60.8-131.2 136-131.2l435.2-1.6zM72 633.6c22.4 17.6 48 32 76.8 38.4 24 75.2 81.6 134.4 153.6 166.4-25.6 52.8-80 89.6-142.4 89.6-4.8 0-8-1.6-11.2-1.6 6.4-14.4 9.6-28.8 9.6-46.4 0-62.4-49.6-112-112-112-16 0-32 3.2-44.8 9.6 0-3.2-1.6-6.4-1.6-9.6 0-56 28.8-105.6 72-134.4zM259.2 64c0-17.673-14.327-32-32-32s-32 14.327-32 32c0 17.673 14.327 32 32 32s32-14.327 32-32zM387.2 0c0-17.673-14.327-32-32-32s-32 14.327-32 32c0 17.673 14.327 32 32 32s32-14.327 32-32zM515.2 96c0-17.673-14.327-32-32-32s-32 14.327-32 32c0 17.673 14.327 32 32 32s32-14.327 32-32zM643.2 0c0-17.673-14.327-32-32-32s-32 14.327-32 32c0 17.673 14.327 32 32 32s32-14.327 32-32z" />
<glyph unicode="&#xe941;" glyph-name="hail-night-1" horiz-adv-x="864" d="M640 32c17.6 0 32 14.4 32 32v160c0 17.6-14.4 32-32 32s-32-14.4-32-32v-160c0-17.6 14.4-32 32-32zM544 224c0 17.6-14.4 32-32 32s-32-14.4-32-32v-64c0-17.6 14.4-32 32-32s32 14.4 32 32v64zM416 224c0 17.6-14.4 32-32 32s-32-14.4-32-32v-160c0-17.6 14.4-32 32-32s32 14.4 32 32v160zM256 96c17.6 0 32 14.4 32 32v96c0 17.6-14.4 32-32 32s-32-14.4-32-32v-96c0-17.6 14.4-32 32-32zM864 510.4c0 104-84.8 187.2-192 190.4-43.2 80-128 131.2-222.4 131.2-25.6 0-51.2-4.8-73.6-11.2-22.4 80-96 139.2-184 139.2-3.2 0-8 0-11.2-1.6-1.6 0-1.6 0-3.2 0l-46.4-3.2 19.2-41.6c4.8-11.2 8-22.4 8-33.6 0-44.8-35.2-80-80-80-11.2 0-22.4 1.6-32 6.4l-41.6 19.2-3.2-44.8v-1.6c-1.6-4.8-1.6-8-1.6-11.2 0-76.8 44.8-142.4 108.8-172.8-27.2-30.4-44.8-68.8-44.8-112 0-89.6 75.2-163.2 168-163.2h436.8c107.2 0 195.2 86.4 195.2 190.4zM67.2 736c3.2 0 6.4 0 11.2 0 80 0 144 64 144 144 0 4.8 0 8 0 11.2 48-11.2 84.8-49.6 96-97.6-54.4-33.6-94.4-86.4-110.4-148.8-8-1.6-16-3.2-24-4.8-57.6 3.2-104 43.2-116.8 96zM668.8 384h-436.8c-57.6 0-104 44.8-104 99.2s46.4 99.2 102.4 99.2l32-1.6 3.2 28.8c11.2 89.6 91.2 156.8 184 156.8 76.8 0 144-44.8 172.8-112l9.6-22.4 24 1.6c4.8 0 8 0 12.8 0 72 0 131.2-56 131.2-126.4 0-67.2-59.2-123.2-131.2-123.2zM361.6-9.6c-6.4-4.8-9.6-14.4-9.6-22.4s3.2-16 9.6-22.4c6.4-6.4 14.4-9.6 22.4-9.6s16 3.2 22.4 9.6c6.4 6.4 9.6 14.4 9.6 22.4s-3.2 16-9.6 22.4c-11.2 12.8-33.6 12.8-44.8 0zM489.6 86.4c-6.4-4.8-9.6-14.4-9.6-22.4s3.2-16 9.6-22.4c6.4-6.4 14.4-9.6 22.4-9.6s16 3.2 22.4 9.6c6.4 6.4 9.6 14.4 9.6 22.4s-3.2 16-9.6 22.4c-11.2 12.8-33.6 12.8-44.8 0zM640-64c8 0 16 3.2 22.4 9.6s9.6 14.4 9.6 22.4c0 8-3.2 16-9.6 22.4-12.8 11.2-33.6 11.2-44.8 0-6.4-4.8-9.6-14.4-9.6-22.4s3.2-16 9.6-22.4c6.4-6.4 14.4-9.6 22.4-9.6zM256 0c8 0 16 3.2 22.4 9.6s9.6 14.4 9.6 22.4c0 8-3.2 16-9.6 22.4-12.8 11.2-33.6 11.2-44.8 0-6.4-4.8-9.6-12.8-9.6-22.4 0-8 3.2-16 9.6-22.4 6.4-4.8 14.4-9.6 22.4-9.6z" />
<glyph unicode="&#xe942;" glyph-name="hail-night-2-f" horiz-adv-x="896" d="M480 288c-17.6 0-32-14.4-32-32v-96c0-17.6 14.4-32 32-32s32 14.4 32 32v96c0 17.6-14.4 32-32 32zM352 288c-17.6 0-32-14.4-32-32v-160c0-17.6 14.4-32 32-32s32 14.4 32 32v160c0 17.6-14.4 32-32 32zM256 0v256c0 17.6-14.4 32-32 32s-32-14.4-32-32v-166.4c-36.8 27.2-83.2 41.6-129.6 36.8-17.6-1.6-30.4-17.6-28.8-35.2s16-30.4 35.2-28.8c54.4 4.8 105.6-25.6 128-75.2 0 0 0 0 0 0 1.6-1.6 3.2-4.8 4.8-6.4 0 0 1.6-1.6 1.6-1.6 1.6-1.6 3.2-3.2 6.4-4.8 0 0 0 0 1.6 0 1.6-1.6 4.8-1.6 6.4-3.2 0 0 1.6 0 1.6 0 3.2 0 4.8-1.6 8-1.6 0 0 0 0 0 0 1.6 0 1.6 0 3.2 0s1.6 0 3.2 0c0 0 0 0 1.6 0s3.2 1.6 4.8 1.6c0 0 0 0 0 0s1.6 0 1.6 1.6c1.6 0 1.6 1.6 3.2 1.6s1.6 1.6 1.6 1.6c0 0 1.6 1.6 1.6 1.6s1.6 1.6 1.6 3.2c0 0 1.6 1.6 1.6 1.6 0 1.6 1.6 1.6 1.6 3.2s1.6 1.6 1.6 3.2c0 1.6 0 1.6 1.6 3.2 0 1.6 0 1.6 0 3.2s0 3.2 0 4.8c0-1.6 0 0 0 0v0c0 0 0 0 0 0zM769.6 126.4c-48 3.2-92.8-9.6-129.6-36.8v166.4c0 17.6-14.4 32-32 32s-32-14.4-32-32v-256c0 0 0 0 0 0v0c0 0 0-1.6 0-1.6 0-1.6 0-3.2 0-4.8s0-1.6 0-3.2 0-1.6 1.6-3.2c0-1.6 1.6-1.6 1.6-3.2s1.6-1.6 1.6-3.2c0-1.6 1.6-1.6 1.6-1.6 0-1.6 1.6-1.6 1.6-3.2 0 0 1.6-1.6 1.6-1.6s1.6-1.6 1.6-1.6c1.6 0 1.6-1.6 3.2-1.6 0 0 1.6 0 1.6-1.6 0 0 0 0 0 0 1.6 0 3.2-1.6 4.8-1.6 0 0 0 0 1.6 0s1.6 0 3.2 0 1.6 0 3.2 0v0c3.2 0 4.8 0 8 1.6 0 0 1.6 0 1.6 0 1.6 0 4.8 1.6 6.4 3.2 0 0 0 0 1.6 0 1.6 1.6 4.8 3.2 6.4 4.8 0 0 1.6 1.6 1.6 1.6 1.6 1.6 3.2 4.8 4.8 6.4 0 0 0 0 0 0 22.4 49.6 73.6 80 128 75.2 17.6-1.6 33.6 11.2 35.2 28.8 1.6 19.2-11.2 35.2-28.8 36.8zM329.6 22.4c-6.4-6.4-9.6-14.4-9.6-22.4s3.2-16 9.6-22.4c6.4-6.4 14.4-9.6 22.4-9.6s16 3.2 22.4 9.6c6.4 6.4 9.6 14.4 9.6 22.4s-3.2 16-9.6 22.4c-11.2 12.8-33.6 12.8-44.8 0zM457.6 86.4c-6.4-6.4-9.6-14.4-9.6-22.4s3.2-16 9.6-22.4c6.4-6.4 14.4-9.6 22.4-9.6s16 3.2 22.4 9.6c6.4 6.4 9.6 14.4 9.6 22.4s-3.2 16-9.6 22.4c-11.2 12.8-33.6 12.8-44.8 0zM886.4 118.4c-12.8 11.2-33.6 11.2-44.8 0-6.4-6.4-9.6-14.4-9.6-22.4s3.2-16 9.6-22.4c6.4-6.4 14.4-9.6 22.4-9.6s16 3.2 22.4 9.6c6.4 6.4 9.6 14.4 9.6 22.4s-3.2 16-9.6 22.4zM636.8 668.8c-4.8 0-11.2 0-16 0-32 78.4-110.4 132.8-201.6 132.8-112 0-203.2-80-216-184 0 0-1.6 0-1.6 0-75.2 0-136-59.2-136-131.2s60.8-131.2 136-131.2h436.8c89.6 0 163.2 70.4 163.2 158.4-1.6 83.2-75.2 155.2-164.8 155.2zM73.6 633.6c22.4 17.6 48 32 76.8 38.4 24 75.2 81.6 134.4 153.6 166.4-27.2 54.4-81.6 89.6-144 89.6-4.8 0-8-1.6-11.2-1.6 6.4-14.4 9.6-28.8 9.6-46.4 0-62.4-49.6-112-112-112-16 0-32 3.2-44.8 9.6 0-3.2-1.6-6.4-1.6-9.6 0-56 28.8-105.6 73.6-134.4z" />
<glyph unicode="&#xe943;" glyph-name="hail-night-2" horiz-adv-x="928" d="M232 320h436.8c108.8 0 195.2 86.4 195.2 190.4s-84.8 187.2-192 190.4c-43.2 80-128 131.2-222.4 131.2-25.6 0-51.2-4.8-73.6-11.2-22.4 80-96 139.2-184 139.2-3.2 0-8 0-11.2-1.6-1.6 0-1.6 0-3.2 0l-46.4-3.2 19.2-41.6c4.8-11.2 8-22.4 8-33.6 0-44.8-35.2-80-80-80-11.2 0-22.4 1.6-32 6.4l-41.6 19.2-3.2-44.8v-1.6c-1.6-4.8-1.6-8-1.6-11.2 0-76.8 44.8-142.4 108.8-172.8-27.2-30.4-44.8-68.8-44.8-112 0-89.6 75.2-163.2 168-163.2zM451.2 768c76.8 0 144-44.8 172.8-112l9.6-22.4 24 1.6c4.8 0 8 0 12.8 0 72 0 131.2-56 131.2-126.4 0-68.8-59.2-126.4-131.2-126.4h-436.8c-57.6 0-104 44.8-104 99.2s46.4 99.2 102.4 99.2l32-1.6 3.2 28.8c11.2 92.8 89.6 160 184 160zM67.2 737.6c3.2 0 6.4 0 11.2 0 80 0 144 64 144 144 0 4.8 0 8 0 11.2 48-11.2 84.8-49.6 96-97.6-54.4-33.6-94.4-86.4-110.4-148.8-8-1.6-16-3.2-24-4.8-57.6 3.2-102.4 41.6-116.8 96zM512 256c-17.6 0-32-14.4-32-32v-96c0-17.6 14.4-32 32-32s32 14.4 32 32v96c0 17.6-14.4 32-32 32zM384 256c-17.6 0-32-14.4-32-32v-160c0-17.6 14.4-32 32-32s32 14.4 32 32v160c0 17.6-14.4 32-32 32zM256 256c-17.6 0-32-14.4-32-32v-166.4c-36.8 27.2-83.2 41.6-129.6 36.8-17.6-1.6-30.4-17.6-28.8-35.2s17.6-30.4 35.2-28.8c54.4 4.8 105.6-25.6 128-75.2 0 0 0 0 0 0 1.6-1.6 3.2-4.8 4.8-6.4 0 0 1.6-1.6 1.6-1.6 1.6-1.6 3.2-3.2 6.4-4.8 0 0 0 0 1.6 0 1.6-1.6 4.8-1.6 6.4-3.2 0 0 1.6 0 1.6 0 3.2 0 4.8-1.6 8-1.6 0 0 0 0 0 0 1.6 0 1.6 0 3.2 0s1.6 0 3.2 0c0 0 0 0 0 0 1.6 0 3.2 1.6 4.8 1.6 0 0 0 0 0 0s1.6 0 1.6 1.6c1.6 0 1.6 1.6 3.2 1.6s1.6 1.6 1.6 1.6c0 0 1.6 1.6 1.6 1.6s1.6 1.6 1.6 3.2c0 0 1.6 1.6 1.6 1.6 0 1.6 1.6 1.6 1.6 3.2s1.6 1.6 1.6 3.2c0 1.6 0 1.6 1.6 3.2 0 1.6 0 1.6 1.6 3.2 0 1.6 0 3.2 0 3.2s0 1.6 0 1.6v256c0 17.6-14.4 32-32 32zM801.6 94.4c-48 4.8-92.8-9.6-129.6-36.8v166.4c0 17.6-14.4 32-32 32s-32-14.4-32-32v-256c0 0 0-1.6 0-1.6 0-1.6 0-3.2 0-3.2 0-1.6 0-1.6 1.6-3.2 0-1.6 0-1.6 1.6-3.2 0-1.6 1.6-1.6 1.6-3.2s1.6-1.6 1.6-3.2c0-1.6 1.6-1.6 1.6-1.6 0-1.6 1.6-1.6 1.6-3.2 0 0 1.6-1.6 1.6-1.6s1.6-1.6 1.6-1.6c1.6 0 1.6-1.6 3.2-1.6 0 0 1.6 0 1.6-1.6 0 0 0 0 0 0 1.6 0 3.2-1.6 4.8-1.6 0 0 0 0 1.6 0 0 0 1.6 0 1.6 0 1.6 0 3.2 0 4.8 0 0 0 0 0 0 0 3.2 0 4.8 0 8 1.6 0 0 1.6 0 1.6 0 1.6 0 4.8 1.6 6.4 3.2 0 0 0 0 1.6 0 1.6 1.6 4.8 3.2 6.4 4.8 0 0 1.6 1.6 1.6 1.6 1.6 1.6 3.2 4.8 4.8 6.4 0 0 0 0 0 0 22.4 49.6 73.6 80 128 75.2 17.6-1.6 33.6 11.2 35.2 28.8s-12.8 33.6-30.4 35.2zM361.6-9.6c-6.4-4.8-9.6-12.8-9.6-22.4 0-8 3.2-16 9.6-22.4s14.4-9.6 22.4-9.6c8 0 16 3.2 22.4 9.6s9.6 14.4 9.6 22.4c0 8-3.2 16-9.6 22.4-12.8 12.8-33.6 12.8-44.8 0zM489.6 54.4c-6.4-4.8-9.6-14.4-9.6-22.4s3.2-16 9.6-22.4c6.4-6.4 14.4-9.6 22.4-9.6s16 3.2 22.4 9.6c6.4 6.4 9.6 14.4 9.6 22.4s-3.2 16-9.6 22.4c-12.8 12.8-33.6 12.8-44.8 0zM873.6 86.4c-6.4-4.8-9.6-14.4-9.6-22.4s3.2-16 9.6-22.4c6.4-6.4 14.4-9.6 22.4-9.6s16 3.2 22.4 9.6c6.4 6.4 9.6 14.4 9.6 22.4s-3.2 16-9.6 22.4c-12.8 12.8-33.6 12.8-44.8 0z" />
<glyph unicode="&#xe944;" glyph-name="heavy-hail-day-f" horiz-adv-x="960" d="M328 118.4l17.6 20.8c11.2 14.4 9.6 33.6-4.8 44.8s-33.6 9.6-44.8-4.8l-17.6-20.8c-11.2-14.4-9.6-33.6 4.8-44.8 6.4-4.8 12.8-6.4 20.8-6.4s17.6 4.8 24 11.2zM500.8 185.6c-14.4 11.2-33.6 9.6-44.8-4.8l-94.4-118.4c-11.2-14.4-9.6-33.6 4.8-44.8 6.4-4.8 12.8-6.4 19.2-6.4 9.6 0 19.2 4.8 25.6 12.8l94.4 118.4c11.2 11.2 8 32-4.8 43.2zM648 118.4l16 20.8c11.2 14.4 8 33.6-4.8 44.8-14.4 11.2-33.6 9.6-44.8-4.8l-16-20.8c-11.2-14.4-8-33.6 4.8-44.8 6.4-4.8 12.8-6.4 19.2-6.4 9.6 0 19.2 4.8 25.6 11.2zM820.8 185.6c-14.4 11.2-33.6 9.6-44.8-4.8l-94.4-118.4c-11.2-14.4-9.6-33.6 4.8-44.8 6.4-4.8 12.8-6.4 19.2-6.4 9.6 0 19.2 4.8 25.6 12.8l94.4 118.4c11.2 11.2 8 32-4.8 43.2zM224 91.2c-6.4-6.4-9.6-14.4-9.6-22.4s3.2-16 9.6-22.4c6.4-6.4 14.4-9.6 22.4-9.6s16 3.2 22.4 9.6c6.4 6.4 9.6 14.4 9.6 22.4s-3.2 16-9.6 22.4c-11.2 12.8-32 12.8-44.8 0zM304-9.6c-6.4-6.4-9.6-14.4-9.6-22.4s3.2-16 9.6-22.4c6.4-6.4 14.4-9.6 22.4-9.6s16 3.2 22.4 9.6c6.4 6.4 9.6 14.4 9.6 22.4s-3.2 16-9.6 22.4c-11.2 12.8-33.6 12.8-44.8 0zM544 91.2c-6.4-6.4-9.6-14.4-9.6-22.4s3.2-16 9.6-22.4c6.4-6.4 14.4-9.6 22.4-9.6s16 3.2 22.4 9.6c6.4 6.4 9.6 14.4 9.6 22.4s-3.2 17.6-9.6 22.4c-11.2 12.8-32 12.8-44.8 0zM624-9.6c-6.4-6.4-9.6-14.4-9.6-22.4s3.2-16 9.6-22.4c6.4-6.4 14.4-9.6 22.4-9.6s16 3.2 22.4 9.6c6.4 6.4 9.6 14.4 9.6 22.4s-3.2 16-9.6 22.4c-11.2 12.8-33.6 12.8-44.8 0zM352 816c17.6 0 32 14.4 32 32v80c0 17.6-14.4 32-32 32s-32-14.4-32-32v-80c0-17.6 14.4-32 32-32zM144 608c0 17.6-14.4 32-32 32h-80c-17.6 0-32-14.4-32-32s14.4-32 32-32h80c17.6 0 32 14.4 32 32zM164.8 750.4c6.4-6.4 14.4-9.6 22.4-9.6s16 3.2 22.4 9.6c12.8 12.8 12.8 32 0 44.8l-51.2 52.8c-12.8 12.8-32 12.8-44.8 0s-12.8-32 0-44.8l51.2-52.8zM516.8 740.8c8 0 16 3.2 22.4 9.6l52.8 51.2c12.8 12.8 12.8 32 0 44.8s-32 12.8-44.8 0l-52.8-52.8c-12.8-12.8-12.8-32 0-44.8 6.4-4.8 14.4-8 22.4-8zM209.6 465.6c-12.8 12.8-32 12.8-44.8 0l-52.8-52.8c-12.8-12.8-12.8-32 0-44.8 6.4-6.4 14.4-9.6 22.4-9.6s16 3.2 22.4 9.6l52.8 52.8c12.8 11.2 12.8 32 0 44.8zM800 576c-32 75.2-105.6 128-192 128-110.4 0-200-84.8-208-193.6-4.8 1.6-9.6 1.6-16 1.6-70.4 0-128-57.6-128-128s57.6-128 128-128h416c88 0 160 72 160 160s-72 160-160 160zM232 502.4c28.8 35.2 68.8 62.4 115.2 70.4 19.2 64 59.2 116.8 113.6 152-28.8 27.2-67.2 43.2-108.8 43.2-88 0-160-72-160-160 0-41.6 16-78.4 40-105.6z" />
<glyph unicode="&#xe945;" glyph-name="heavy-hail-day" horiz-adv-x="992" d="M320 928v-64c0-17.6 14.4-32 32-32s32 14.4 32 32v64c0 17.6-14.4 32-32 32s-32-14.4-32-32zM32 640c-17.6 0-32-14.4-32-32s14.4-32 32-32h64c17.6 0 32 14.4 32 32s-14.4 32-32 32h-64zM112 801.6l36.8-36.8c6.4-6.4 14.4-9.6 22.4-9.6s16 3.2 22.4 9.6c12.8 12.8 12.8 32 0 44.8l-35.2 38.4c-12.8 12.8-32 12.8-44.8 0-14.4-12.8-14.4-33.6-1.6-46.4zM547.2 848l-36.8-36.8c-12.8-12.8-12.8-32 0-44.8 6.4-6.4 14.4-9.6 22.4-9.6s16 3.2 22.4 9.6l36.8 35.2c12.8 12.8 12.8 32 0 44.8s-33.6 12.8-44.8 1.6zM112 368c6.4-6.4 14.4-9.6 22.4-9.6s16 3.2 22.4 9.6l36.8 36.8c12.8 12.8 12.8 32 0 44.8s-32 12.8-44.8 0l-36.8-36.8c-12.8-11.2-12.8-32 0-44.8zM992 416c0 99.2-75.2 180.8-171.2 190.4-40 80-121.6 129.6-212.8 129.6-35.2 0-67.2-8-97.6-20.8-35.2 52.8-94.4 84.8-158.4 84.8-105.6 0-192-86.4-192-192 0-62.4 30.4-120 80-155.2-9.6-20.8-16-43.2-16-68.8 0-88 72-160 160-160h416c105.6 0 192 86.4 192 192zM224 608c0 70.4 57.6 128 128 128 41.6 0 80-20.8 104-54.4-41.6-33.6-72-83.2-83.2-137.6-36.8-3.2-68.8-17.6-96-40-32 24-52.8 62.4-52.8 104zM800 288h-416c-52.8 0-96 43.2-96 96s43.2 96 96 96c3.2 0 6.4 0 9.6-1.6l36.8-4.8 1.6 33.6c8 92.8 84.8 164.8 176 164.8 72 0 134.4-43.2 163.2-108.8l8-19.2h20.8c70.4 0 128-57.6 128-128s-57.6-128-128-128zM340.8 185.6c-14.4 11.2-33.6 9.6-44.8-4.8l-17.6-20.8c-11.2-14.4-9.6-33.6 4.8-44.8 6.4-4.8 12.8-6.4 20.8-6.4 9.6 0 19.2 4.8 25.6 11.2l17.6 20.8c9.6 12.8 6.4 33.6-6.4 44.8zM364.8 17.6c6.4-4.8 12.8-6.4 19.2-6.4 9.6 0 19.2 4.8 25.6 12.8l94.4 118.4c11.2 14.4 9.6 33.6-4.8 44.8s-33.6 9.6-44.8-4.8l-94.4-118.4c-11.2-16-8-36.8 4.8-46.4zM660.8 185.6c-14.4 11.2-33.6 8-44.8-4.8l-16-20.8c-11.2-14.4-8-33.6 4.8-44.8 6.4-4.8 12.8-6.4 19.2-6.4 9.6 0 19.2 4.8 25.6 12.8l16 20.8c11.2 11.2 8 32-4.8 43.2zM684.8 17.6c6.4-4.8 12.8-6.4 19.2-6.4 9.6 0 19.2 4.8 25.6 12.8l94.4 118.4c11.2 14.4 9.6 33.6-4.8 44.8s-33.6 9.6-44.8-4.8l-94.4-118.4c-11.2-16-8-36.8 4.8-46.4zM224 91.2c-6.4-6.4-9.6-14.4-9.6-22.4s3.2-16 9.6-22.4c6.4-6.4 14.4-9.6 22.4-9.6s16 3.2 22.4 9.6c6.4 6.4 9.6 14.4 9.6 22.4s-3.2 16-9.6 22.4c-11.2 12.8-32 12.8-44.8 0zM304-9.6c-6.4-6.4-9.6-14.4-9.6-22.4s3.2-16 9.6-22.4 14.4-9.6 22.4-9.6c8 0 16 3.2 22.4 9.6s9.6 14.4 9.6 22.4c0 8-3.2 16-9.6 22.4-11.2 12.8-33.6 12.8-44.8 0zM544 91.2c-6.4-6.4-9.6-14.4-9.6-22.4s3.2-16 9.6-22.4c6.4-6.4 14.4-9.6 22.4-9.6s16 3.2 22.4 9.6c6.4 6.4 9.6 14.4 9.6 22.4s-3.2 16-9.6 22.4c-11.2 12.8-32 12.8-44.8 0zM624-9.6c-6.4-6.4-9.6-14.4-9.6-22.4s3.2-16 9.6-22.4 14.4-9.6 22.4-9.6c8 0 16 3.2 22.4 9.6s9.6 14.4 9.6 22.4-3.2 16-9.6 22.4c-11.2 12.8-33.6 12.8-44.8 0z" />
<glyph unicode="&#xe946;" glyph-name="heavy-hail-f" horiz-adv-x="960" d="M752 768c-3.2 0-4.8 0-8 0-43.2 94.4-137.6 160-248 160-136 0-249.6-100.8-268.8-232-16 4.8-33.6 8-51.2 8-97.6 0-176-78.4-176-176s78.4-176 176-176h574.4c0 0 1.6 0 1.6 0 115.2 0 208 92.8 208 208s-92.8 208-208 208zM136 172.8c-6.4 0-14.4 1.6-19.2 6.4-14.4 11.2-16 30.4-4.8 44.8l40 51.2c11.2 14.4 30.4 16 44.8 4.8s16-30.4 4.8-44.8l-41.6-49.6c-6.4-8-14.4-12.8-24-12.8zM222.4 43.2c-6.4 0-14.4 1.6-19.2 6.4-14.4 11.2-16 30.4-4.8 44.8l145.6 180.8c11.2 14.4 30.4 16 44.8 4.8s16-30.4 4.8-44.8l-145.6-180.8c-6.4-8-16-11.2-25.6-11.2zM520 174.4c-6.4 0-14.4 1.6-19.2 6.4-14.4 11.2-16 30.4-4.8 44.8l40 49.6c11.2 14.4 30.4 16 44.8 4.8s16-30.4 4.8-44.8l-40-49.6c-6.4-6.4-16-11.2-25.6-11.2zM606.4 43.2c-6.4 0-14.4 1.6-19.2 6.4-14.4 11.2-16 30.4-4.8 44.8l145.6 180.8c11.2 14.4 30.4 16 44.8 4.8s16-30.4 4.8-44.8l-145.6-180.8c-6.4-8-16-11.2-25.6-11.2zM73.6 96c-8 0-16 3.2-22.4 9.6s-9.6 14.4-9.6 22.4c0 8 3.2 16 9.6 22.4 11.2 12.8 33.6 12.8 44.8 0 6.4-6.4 9.6-14.4 9.6-22.4s-3.2-16-9.6-22.4c-6.4-6.4-14.4-9.6-22.4-9.6zM163.2-32c-8 0-16 3.2-22.4 9.6s-9.6 14.4-9.6 22.4c0 8 3.2 16 9.6 22.4 12.8 11.2 33.6 11.2 44.8 0 6.4-6.4 9.6-14.4 9.6-22.4s-3.2-16-9.6-22.4c-6.4-6.4-14.4-9.6-22.4-9.6zM457.6 96c-8 0-16 3.2-22.4 9.6s-9.6 14.4-9.6 22.4c0 8 3.2 16 9.6 22.4 12.8 12.8 33.6 12.8 44.8 0 6.4-6.4 9.6-14.4 9.6-22.4s-3.2-16-9.6-22.4c-6.4-6.4-14.4-9.6-22.4-9.6zM547.2-32c-8 0-16 3.2-22.4 9.6s-9.6 14.4-9.6 22.4c0 8 3.2 16 9.6 22.4 12.8 11.2 33.6 11.2 44.8 0 6.4-6.4 9.6-14.4 9.6-22.4s-3.2-16-9.6-22.4c-6.4-6.4-14.4-9.6-22.4-9.6z" />
<glyph unicode="&#xe947;" glyph-name="heavy-hail-full-moon-f" horiz-adv-x="800" d="M120 172.8c-6.4 0-14.4 1.6-19.2 6.4-14.4 11.2-16 30.4-4.8 44.8l40 51.2c11.2 14.4 32 16 44.8 4.8 14.4-11.2 16-30.4 4.8-44.8l-41.6-49.6c-6.4-8-14.4-12.8-24-12.8zM174.4 43.2c-6.4 0-14.4 1.6-19.2 6.4-14.4 11.2-16 30.4-4.8 44.8l145.6 180.8c11.2 14.4 30.4 16 44.8 4.8s16-30.4 4.8-44.8l-145.6-180.8c-6.4-8-16-11.2-25.6-11.2zM440 174.4c-6.4 0-14.4 1.6-19.2 6.4-14.4 11.2-16 30.4-4.8 44.8l40 49.6c11.2 14.4 30.4 16 44.8 4.8s16-30.4 4.8-44.8l-40-49.6c-6.4-6.4-16-11.2-25.6-11.2zM494.4 43.2c-6.4 0-14.4 1.6-19.2 6.4-14.4 11.2-16 30.4-4.8 44.8l145.6 180.8c11.2 14.4 30.4 16 44.8 4.8s16-30.4 4.8-44.8l-145.6-180.8c-6.4-8-16-11.2-25.6-11.2zM57.6 96c-8 0-16 3.2-22.4 9.6s-9.6 14.4-9.6 22.4c0 8 3.2 16 9.6 22.4 11.2 12.8 33.6 11.2 44.8 0 6.4-6.4 9.6-14.4 9.6-22.4s-3.2-16-9.6-22.4c-6.4-6.4-14.4-9.6-22.4-9.6zM115.2-32c-8 0-16 3.2-22.4 9.6s-9.6 14.4-9.6 22.4c0 8 3.2 16 9.6 22.4 11.2 12.8 33.6 12.8 44.8 0 6.4-6.4 9.6-14.4 9.6-22.4s-3.2-16-9.6-22.4c-6.4-6.4-14.4-9.6-22.4-9.6zM377.6 96c-8 0-16 3.2-22.4 9.6s-9.6 14.4-9.6 22.4c0 8 3.2 16 9.6 22.4 11.2 11.2 33.6 11.2 44.8 0 6.4-6.4 9.6-14.4 9.6-22.4s-3.2-16-9.6-22.4c-6.4-6.4-14.4-9.6-22.4-9.6zM435.2-32c-8 0-16 3.2-22.4 9.6s-9.6 14.4-9.6 22.4c0 8 3.2 16 9.6 22.4 11.2 12.8 33.6 12.8 44.8 0 6.4-6.4 9.6-14.4 9.6-22.4s-3.2-16-9.6-22.4c-6.4-6.4-14.4-9.6-22.4-9.6zM636.8 668.8c-4.8 0-11.2 0-16 0-32 78.4-110.4 132.8-201.6 132.8-112 0-203.2-80-216-184 0 0-1.6 0-1.6 0-75.2 0-136-59.2-136-131.2s60.8-131.2 136-131.2h436.8c89.6 0 163.2 70.4 163.2 158.4-1.6 83.2-75.2 155.2-164.8 155.2zM150.4 673.6c24 75.2 81.6 134.4 153.6 166.4-27.2 51.2-81.6 88-144 88-88 0-160-72-160-160 0-56 28.8-105.6 72-134.4 22.4 19.2 49.6 32 78.4 40z" />
<glyph unicode="&#xe948;" glyph-name="heavy-hail-full-moon" horiz-adv-x="864" d="M211.2 249.6c-14.4 11.2-33.6 9.6-44.8-4.8l-40-51.2c-11.2-14.4-9.6-33.6 4.8-44.8 6.4-4.8 12.8-6.4 19.2-6.4 9.6 0 19.2 4.8 25.6 12.8l40 51.2c12.8 11.2 9.6 32-4.8 43.2zM371.2 249.6c-14.4 11.2-33.6 9.6-44.8-4.8l-145.6-180.8c-11.2-14.4-9.6-33.6 4.8-44.8 6.4-4.8 12.8-6.4 19.2-6.4 9.6 0 19.2 4.8 25.6 12.8l145.6 180.8c12.8 11.2 9.6 32-4.8 43.2zM531.2 249.6c-14.4 11.2-33.6 9.6-44.8-4.8l-38.4-49.6c-11.2-14.4-9.6-33.6 4.8-44.8 6.4-4.8 12.8-6.4 19.2-6.4 9.6 0 19.2 4.8 25.6 12.8l40 49.6c11.2 11.2 8 32-6.4 43.2zM507.2 17.6c6.4-4.8 12.8-6.4 19.2-6.4 9.6 0 19.2 4.8 25.6 12.8l145.6 180.8c11.2 14.4 9.6 33.6-4.8 44.8s-33.6 9.6-44.8-4.8l-145.6-180.8c-11.2-16-9.6-35.2 4.8-46.4zM67.2 118.4c-6.4-6.4-9.6-14.4-9.6-22.4s3.2-16 9.6-22.4c6.4-6.4 14.4-9.6 22.4-9.6s16 3.2 22.4 9.6 9.6 14.4 9.6 22.4c0 8-3.2 16-9.6 22.4-11.2 12.8-33.6 12.8-44.8 0zM124.8-9.6c-6.4-6.4-9.6-14.4-9.6-22.4s3.2-16 9.6-22.4c6.4-6.4 14.4-9.6 22.4-9.6s16 3.2 22.4 9.6c6.4 6.4 9.6 14.4 9.6 22.4s-3.2 16-9.6 22.4c-11.2 12.8-33.6 12.8-44.8 0zM387.2 118.4c-6.4-6.4-9.6-14.4-9.6-22.4s3.2-16 9.6-22.4c6.4-6.4 14.4-9.6 22.4-9.6s16 3.2 22.4 9.6c6.4 6.4 9.6 14.4 9.6 22.4s-3.2 16-9.6 22.4c-11.2 12.8-33.6 12.8-44.8 0zM444.8-9.6c-6.4-6.4-9.6-14.4-9.6-22.4s3.2-16 9.6-22.4c6.4-6.4 14.4-9.6 22.4-9.6s16 3.2 22.4 9.6c6.4 6.4 9.6 14.4 9.6 22.4s-3.2 16-9.6 22.4c-11.2 12.8-33.6 12.8-44.8 0zM672 700.8c-43.2 80-128 131.2-222.4 131.2-25.6 0-51.2-4.8-73.6-11.2-22.4 80-96 139.2-184 139.2-105.6 0-192-86.4-192-192 0-76.8 44.8-142.4 108.8-172.8-27.2-30.4-44.8-68.8-44.8-112 0-89.6 75.2-163.2 168-163.2h436.8c107.2 0 195.2 86.4 195.2 190.4s-84.8 187.2-192 190.4zM64 768c0 70.4 57.6 128 128 128 60.8 0 113.6-43.2 124.8-102.4-54.4-33.6-94.4-86.4-110.4-148.8-8-1.6-16-3.2-24-4.8-65.6 4.8-118.4 59.2-118.4 128zM668.8 384h-436.8c-57.6 0-104 44.8-104 99.2s46.4 99.2 102.4 99.2l32-1.6 3.2 28.8c11.2 89.6 91.2 156.8 184 156.8 76.8 0 144-44.8 172.8-112l9.6-22.4 24 1.6c4.8 0 8 0 12.8 0 72 0 131.2-56 131.2-126.4 0-65.6-59.2-123.2-131.2-123.2z" />
<glyph unicode="&#xe949;" glyph-name="heavy-hail-night-f" horiz-adv-x="800" d="M120 172.8c-6.4 0-14.4 1.6-19.2 6.4-14.4 11.2-16 32-4.8 44.8l40 51.2c11.2 14.4 32 16 44.8 4.8 14.4-11.2 16-30.4 4.8-44.8l-41.6-49.6c-6.4-8-16-12.8-24-12.8zM174.4 43.2c-6.4 0-14.4 1.6-19.2 6.4-14.4 11.2-16 30.4-4.8 44.8l145.6 180.8c11.2 14.4 30.4 16 44.8 4.8s16-30.4 4.8-44.8l-145.6-180.8c-6.4-8-16-11.2-25.6-11.2zM440 174.4c-6.4 0-14.4 1.6-19.2 6.4-14.4 11.2-16 30.4-4.8 44.8l40 49.6c11.2 14.4 32 16 44.8 4.8 14.4-11.2 16-30.4 4.8-44.8l-40-49.6c-6.4-6.4-16-11.2-25.6-11.2zM494.4 43.2c-6.4 0-14.4 1.6-19.2 6.4-14.4 11.2-16 30.4-4.8 44.8l145.6 180.8c11.2 14.4 30.4 16 44.8 4.8s16-30.4 4.8-44.8l-145.6-180.8c-6.4-8-16-11.2-25.6-11.2zM57.6 96c-8 0-16 3.2-22.4 9.6s-9.6 14.4-9.6 22.4c0 8 3.2 16 9.6 22.4 12.8 11.2 33.6 11.2 44.8 0 6.4-6.4 9.6-14.4 9.6-22.4s-3.2-16-9.6-22.4c-6.4-6.4-14.4-9.6-22.4-9.6zM115.2-32c-8 0-16 3.2-22.4 9.6s-9.6 14.4-9.6 22.4c0 8 3.2 16 9.6 22.4 12.8 12.8 33.6 12.8 44.8 0 6.4-6.4 9.6-14.4 9.6-22.4s-3.2-16-9.6-22.4c-6.4-6.4-14.4-9.6-22.4-9.6zM377.6 96c-8 0-16 3.2-22.4 9.6s-9.6 14.4-9.6 22.4c0 8 3.2 16 9.6 22.4 12.8 12.8 33.6 11.2 44.8 0 6.4-6.4 9.6-14.4 9.6-22.4s-3.2-16-9.6-22.4c-6.4-6.4-14.4-9.6-22.4-9.6zM435.2-32c-8 0-17.6 3.2-22.4 9.6-6.4 6.4-9.6 14.4-9.6 22.4s3.2 16 9.6 22.4c11.2 12.8 33.6 12.8 44.8 0 6.4-6.4 9.6-14.4 9.6-22.4s-3.2-16-9.6-22.4c-6.4-6.4-14.4-9.6-22.4-9.6zM636.8 352c89.6 0 163.2 70.4 163.2 158.4s-73.6 158.4-163.2 158.4c-4.8 0-11.2 0-16 0-32 78.4-110.4 132.8-201.6 132.8-112 0-203.2-80-216-184 0 0-1.6 0-1.6 0-75.2 0-136-59.2-136-131.2s60.8-131.2 136-131.2l435.2-3.2zM72 633.6c22.4 17.6 48 32 76.8 38.4 24 75.2 81.6 134.4 153.6 166.4-25.6 54.4-80 89.6-142.4 89.6-4.8 0-8-1.6-11.2-1.6 6.4-14.4 9.6-28.8 9.6-46.4 0-62.4-49.6-112-112-112-16 0-32 3.2-44.8 9.6 0-3.2-1.6-6.4-1.6-9.6 0-56 28.8-105.6 72-134.4z" />
<glyph unicode="&#xe94a;" glyph-name="heavy-hail-night" horiz-adv-x="864" d="M131.2 148.8c6.4-4.8 12.8-6.4 19.2-6.4 9.6 0 19.2 4.8 25.6 11.2l40 51.2c11.2 14.4 9.6 33.6-4.8 44.8s-33.6 9.6-44.8-4.8l-40-51.2c-11.2-14.4-8-33.6 4.8-44.8zM371.2 249.6c-14.4 11.2-33.6 9.6-44.8-4.8l-145.6-180.8c-11.2-14.4-9.6-33.6 4.8-44.8 6.4-4.8 12.8-6.4 19.2-6.4 9.6 0 19.2 4.8 25.6 12.8l145.6 180.8c11.2 11.2 9.6 32-4.8 43.2zM452.8 150.4c6.4-4.8 12.8-6.4 19.2-6.4 9.6 0 19.2 4.8 25.6 12.8l40 49.6c11.2 14.4 8 33.6-4.8 44.8-14.4 11.2-33.6 9.6-44.8-4.8l-40-51.2c-11.2-14.4-9.6-33.6 4.8-44.8zM691.2 249.6c-14.4 11.2-33.6 9.6-44.8-4.8l-145.6-180.8c-11.2-14.4-9.6-33.6 4.8-44.8 6.4-4.8 12.8-6.4 19.2-6.4 9.6 0 19.2 4.8 25.6 12.8l145.6 180.8c11.2 11.2 9.6 32-4.8 43.2zM67.2 118.4c-6.4-6.4-9.6-14.4-9.6-22.4s3.2-16 9.6-22.4c6.4-6.4 14.4-9.6 22.4-9.6s16 3.2 22.4 9.6c6.4 6.4 9.6 14.4 9.6 22.4s-3.2 16-9.6 22.4c-11.2 11.2-33.6 12.8-44.8 0zM179.2-32c0 8-3.2 16-9.6 22.4-11.2 12.8-33.6 12.8-44.8 0-6.4-6.4-9.6-14.4-9.6-22.4s3.2-16 9.6-22.4c6.4-6.4 14.4-9.6 22.4-9.6s16 3.2 22.4 9.6c6.4 6.4 9.6 14.4 9.6 22.4zM409.6 64c8 0 16 3.2 22.4 9.6s9.6 14.4 9.6 22.4c0 8-3.2 16-9.6 22.4-12.8 11.2-33.6 11.2-44.8 0-6.4-6.4-9.6-14.4-9.6-22.4s3.2-16 9.6-22.4c4.8-6.4 14.4-9.6 22.4-9.6zM467.2-64c8 0 16 3.2 22.4 9.6s9.6 14.4 9.6 22.4-3.2 16-9.6 22.4c-12.8 12.8-33.6 12.8-44.8 0-6.4-6.4-9.6-14.4-9.6-22.4s3.2-16 9.6-22.4c4.8-6.4 14.4-9.6 22.4-9.6zM864 510.4c0 104-84.8 187.2-192 190.4-43.2 80-128 131.2-222.4 131.2-25.6 0-49.6-3.2-73.6-11.2-22.4 80-96 139.2-184 139.2-3.2 0-8 0-11.2-1.6-1.6 0-1.6 0-3.2 0l-46.4-3.2 19.2-41.6c4.8-11.2 8-22.4 8-33.6 0-44.8-35.2-80-80-80-11.2 0-22.4 1.6-32 6.4l-41.6 19.2-3.2-44.8v-1.6c-1.6-4.8-1.6-8-1.6-11.2 0-76.8 44.8-142.4 108.8-172.8-27.2-28.8-44.8-68.8-44.8-112 0-89.6 75.2-163.2 168-163.2h436.8c107.2 0 195.2 86.4 195.2 190.4zM67.2 737.6c3.2 0 6.4 0 11.2 0 80 0 144 64 144 144 0 4.8 0 8 0 12.8 48-11.2 84.8-49.6 96-97.6-54.4-33.6-94.4-86.4-110.4-148.8-8-1.6-16-3.2-24-4.8-57.6 1.6-104 40-116.8 94.4zM668.8 384h-436.8c-57.6 0-104 44.8-104 99.2s46.4 99.2 102.4 99.2l32-1.6 3.2 28.8c11.2 89.6 91.2 156.8 184 156.8 76.8 0 144-44.8 172.8-112l9.6-22.4 24 1.6c4.8 0 8 0 12.8 0 72 0 131.2-56 131.2-126.4 0-65.6-59.2-123.2-131.2-123.2z" />
<glyph unicode="&#xe94b;" glyph-name="heavy-hail" d="M795.2 800c-51.2 97.6-155.2 160-267.2 160-137.6 0-259.2-94.4-292.8-225.6-9.6 1.6-17.6 1.6-27.2 1.6-115.2 0-208-92.8-208-208s92.8-208 208-208h576c132.8 0 240 107.2 240 240 0 128-100.8 233.6-228.8 240zM784 384h-576c-80 0-144 64-144 144s64 144 144 144c14.4 0 28.8-1.6 41.6-6.4l35.2-11.2 4.8 36.8c19.2 116.8 120 204.8 238.4 204.8 94.4 0 180.8-56 219.2-142.4l9.6-19.2 25.6 1.6c1.6 0 1.6 0 3.2 0 97.6 0 176-78.4 176-176-1.6-97.6-80-176-177.6-176zM211.2 249.6c-14.4 11.2-33.6 8-44.8-4.8l-40-51.2c-11.2-14.4-9.6-33.6 4.8-44.8 6.4-4.8 12.8-8 20.8-8 9.6 0 19.2 4.8 25.6 12.8l40 51.2c9.6 12.8 8 33.6-6.4 44.8zM403.2 249.6c-14.4 11.2-33.6 9.6-44.8-4.8l-145.6-180.8c-11.2-14.4-9.6-33.6 4.8-44.8 6.4-4.8 12.8-6.4 19.2-6.4 9.6 0 19.2 4.8 25.6 12.8l145.6 180.8c11.2 11.2 9.6 32-4.8 43.2zM595.2 249.6c-14.4 11.2-33.6 8-44.8-4.8l-38.4-49.6c-11.2-14.4-9.6-33.6 4.8-44.8 6.4-4.8 12.8-6.4 19.2-6.4 9.6 0 19.2 4.8 25.6 12.8l40 49.6c11.2 11.2 8 32-6.4 43.2zM648 22.4l145.6 180.8c11.2 14.4 9.6 33.6-4.8 44.8s-33.6 9.6-44.8-4.8l-145.6-180.8c-11.2-14.4-9.6-33.6 4.8-44.8 6.4-4.8 12.8-6.4 19.2-6.4 9.6 0 19.2 3.2 25.6 11.2zM67.2 118.4c-6.4-6.4-9.6-14.4-9.6-22.4s3.2-16 9.6-22.4c6.4-6.4 14.4-9.6 22.4-9.6s16 3.2 22.4 9.6c6.4 6.4 9.6 14.4 9.6 22.4s-3.2 16-9.6 22.4c-11.2 12.8-33.6 12.8-44.8 0zM179.2-64c8 0 16 3.2 22.4 9.6s9.6 14.4 9.6 22.4c0 8-3.2 16-9.6 22.4-11.2 11.2-33.6 11.2-44.8 0-6.4-6.4-9.6-14.4-9.6-22.4s3.2-16 9.6-22.4c6.4-6.4 14.4-9.6 22.4-9.6zM451.2 118.4c-6.4-6.4-9.6-14.4-9.6-22.4s3.2-16 9.6-22.4c6.4-6.4 14.4-9.6 22.4-9.6s16 3.2 22.4 9.6c6.4 6.4 9.6 14.4 9.6 22.4s-3.2 16-9.6 22.4c-11.2 12.8-33.6 12.8-44.8 0zM585.6-54.4c6.4 6.4 9.6 14.4 9.6 22.4s-3.2 16-9.6 22.4c-11.2 11.2-33.6 11.2-44.8 0-6.4-6.4-9.6-14.4-9.6-22.4s3.2-16 9.6-22.4c6.4-6.4 14.4-9.6 22.4-9.6s16 3.2 22.4 9.6z" />
<glyph unicode="&#xe94c;" glyph-name="heavy-rain-1-f" horiz-adv-x="960" d="M752 768c-3.2 0-4.8 0-8 0-43.2 94.4-137.6 160-248 160-136 0-249.6-100.8-268.8-232-16 4.8-33.6 8-51.2 8-97.6 0-176-78.4-176-176s78.4-176 176-176h574.4c0 0 1.6 0 1.6 0 115.2 0 208 92.8 208 208s-92.8 208-208 208zM73.6 96c-6.4 0-14.4 1.6-19.2 6.4-14.4 11.2-16 30.4-4.8 44.8l102.4 128c11.2 14.4 30.4 16 44.8 4.8s16-30.4 4.8-44.8l-102.4-128c-6.4-6.4-16-11.2-25.6-11.2zM163.2-32c-6.4 0-14.4 1.6-19.2 6.4-14.4 11.2-16 30.4-4.8 44.8l204.8 256c11.2 14.4 30.4 16 44.8 4.8s16-30.4 4.8-44.8l-204.8-256c-6.4-6.4-16-11.2-25.6-11.2zM457.6 96c-6.4 0-14.4 1.6-19.2 6.4-14.4 11.2-16 30.4-4.8 44.8l102.4 128c11.2 14.4 30.4 16 44.8 4.8s16-30.4 4.8-44.8l-102.4-128c-6.4-6.4-16-11.2-25.6-11.2zM547.2-32c-6.4 0-14.4 1.6-19.2 6.4-14.4 11.2-16 30.4-4.8 44.8l204.8 256c11.2 14.4 30.4 16 44.8 4.8s16-30.4 4.8-44.8l-204.8-256c-6.4-6.4-16-11.2-25.6-11.2z" />
<glyph unicode="&#xe94d;" glyph-name="heavy-rain-1" d="M795.2 800c-51.2 97.6-155.2 160-267.2 160-137.6 0-259.2-94.4-292.8-225.6-9.6 1.6-17.6 1.6-27.2 1.6-115.2 0-208-92.8-208-208s92.8-208 208-208h576c132.8 0 240 107.2 240 240 0 128-100.8 233.6-228.8 240zM784 384h-576c-80 0-144 64-144 144s64 144 144 144c14.4 0 28.8-1.6 41.6-6.4l35.2-11.2 4.8 36.8c19.2 116.8 120 204.8 238.4 204.8 94.4 0 180.8-56 219.2-142.4l9.6-19.2 25.6 1.6c1.6 0 1.6 0 3.2 0 97.6 0 176-78.4 176-176-1.6-97.6-80-176-177.6-176zM211.2 249.6c-14.4 11.2-33.6 8-44.8-4.8l-102.4-128c-11.2-14.4-9.6-33.6 4.8-44.8 6.4-6.4 14.4-8 20.8-8 9.6 0 19.2 4.8 25.6 12.8l102.4 128c9.6 12.8 8 33.6-6.4 44.8zM158.4-57.6c6.4-4.8 12.8-6.4 19.2-6.4 9.6 0 19.2 4.8 25.6 12.8l204.8 256c11.2 14.4 9.6 33.6-4.8 44.8s-33.6 9.6-44.8-4.8l-204.8-256c-11.2-14.4-8-35.2 4.8-46.4zM595.2 249.6c-14.4 11.2-33.6 8-44.8-4.8l-102.4-128c-11.2-14.4-9.6-33.6 4.8-44.8 6.4-4.8 12.8-6.4 19.2-6.4 9.6 0 19.2 4.8 25.6 12.8l102.4 128c12.8 11.2 9.6 32-4.8 43.2zM542.4-57.6c6.4-4.8 12.8-6.4 19.2-6.4 9.6 0 19.2 4.8 25.6 12.8l204.8 256c11.2 14.4 9.6 33.6-4.8 44.8s-33.6 9.6-44.8-4.8l-204.8-256c-11.2-14.4-8-35.2 4.8-46.4z" />
<glyph unicode="&#xe94e;" glyph-name="heavy-rain-2-f" horiz-adv-x="992" d="M771.2 768c-3.2 0-4.8 0-8 0-43.2 94.4-137.6 160-248 160-136 0-249.6-100.8-268.8-232-16 4.8-33.6 8-51.2 8-97.6 0-176-78.4-176-176s78.4-176 176-176h574.4c0 0 1.6 0 1.6 0 115.2 0 208 92.8 208 208s-92.8 208-208 208zM35.2 24c-6.4 0-14.4 1.6-19.2 6.4-14.4 11.2-16 30.4-4.8 44.8l32 40c11.2 14.4 30.4 16 44.8 4.8s16-30.4 4.8-44.8l-32-40c-6.4-6.4-16-11.2-25.6-11.2zM139.2 153.6c-6.4 0-14.4 1.6-19.2 6.4-14.4 11.2-16 30.4-4.8 44.8l56 70.4c11.2 14.4 30.4 16 44.8 4.8s16-30.4 4.8-44.8l-56-70.4c-8-8-17.6-11.2-25.6-11.2zM182.4-32c-6.4 0-14.4 1.6-19.2 6.4-14.4 11.2-16 30.4-4.8 44.8l25.6 32c11.2 14.4 30.4 16 44.8 4.8s16-30.4 4.8-44.8l-25.6-32c-6.4-6.4-16-11.2-25.6-11.2zM284.8 96c-6.4 0-14.4 1.6-19.2 6.4-14.4 11.2-16 30.4-4.8 44.8l102.4 128c11.2 14.4 30.4 16 44.8 4.8s16-30.4 4.8-44.8l-102.4-128c-6.4-6.4-16-11.2-25.6-11.2zM419.2 24c-6.4 0-14.4 1.6-19.2 6.4-14.4 11.2-16 30.4-4.8 44.8l59.2 73.6c11.2 14.4 30.4 16 44.8 4.8s16-30.4 4.8-44.8l-59.2-73.6c-6.4-6.4-16-11.2-25.6-11.2zM553.6 192c-6.4 0-14.4 1.6-19.2 6.4-14.4 11.2-16 30.4-4.8 44.8l25.6 32c11.2 14.4 30.4 16 44.8 4.8s16-30.4 4.8-44.8l-25.6-32c-6.4-6.4-16-11.2-25.6-11.2zM566.4-32c-6.4 0-14.4 1.6-19.2 6.4-14.4 11.2-16 30.4-4.8 44.8l67.2 83.2c11.2 14.4 30.4 16 44.8 4.8s16-30.4 4.8-44.8l-67.2-83.2c-6.4-6.4-16-11.2-25.6-11.2zM708.8 145.6c-6.4 0-14.4 1.6-19.2 6.4-14.4 11.2-16 30.4-4.8 44.8l62.4 78.4c11.2 14.4 30.4 16 44.8 4.8s16-30.4 4.8-44.8l-62.4-78.4c-6.4-6.4-16-11.2-25.6-11.2z" />
<glyph unicode="&#xe94f;" glyph-name="heavy-rain-2" d="M795.2 800c-51.2 97.6-155.2 160-267.2 160-137.6 0-259.2-94.4-292.8-225.6-9.6 1.6-17.6 1.6-27.2 1.6-115.2 0-208-92.8-208-208s92.8-208 208-208h576c132.8 0 240 107.2 240 240 0 128-100.8 233.6-228.8 240zM784 384h-576c-80 0-144 64-144 144s64 144 144 144c14.4 0 28.8-1.6 41.6-6.4l35.2-11.2 4.8 36.8c19.2 116.8 120 204.8 238.4 204.8 94.4 0 180.8-56 219.2-142.4l9.6-19.2 25.6 1.6c1.6 0 1.6 0 3.2 0 97.6 0 176-78.4 176-176-1.6-97.6-80-176-177.6-176zM57.6 4.8l32 40c11.2 14.4 9.6 33.6-4.8 44.8s-33.6 9.6-44.8-4.8l-32-40c-11.2-14.4-9.6-33.6 4.8-44.8 6.4-4.8 12.8-6.4 19.2-6.4 9.6-1.6 19.2 3.2 25.6 11.2zM211.2 249.6c-14.4 11.2-33.6 8-44.8-4.8l-56-70.4c-11.2-14.4-9.6-35.2 4.8-46.4 6.4-4.8 12.8-6.4 19.2-6.4 9.6 0 19.2 4.8 25.6 12.8l56 70.4c11.2 12.8 9.6 33.6-4.8 44.8zM224 25.6c-14.4 11.2-33.6 8-44.8-4.8l-25.6-32c-11.2-14.4-9.6-33.6 4.8-44.8 6.4-4.8 12.8-6.4 19.2-6.4 9.6 0 19.2 4.8 25.6 12.8l25.6 32c11.2 11.2 9.6 32-4.8 43.2zM403.2 249.6c-14.4 11.2-33.6 9.6-44.8-4.8l-102.4-128c-11.2-14.4-9.6-33.6 4.8-44.8 6.4-4.8 12.8-6.4 19.2-6.4 9.6 0 19.2 4.8 25.6 12.8l102.4 128c11.2 11.2 9.6 32-4.8 43.2zM441.6 4.8l59.2 73.6c11.2 14.4 9.6 33.6-4.8 44.8s-33.6 8-44.8-4.8l-59.2-73.6c-11.2-14.4-9.6-33.6 4.8-44.8 6.4-4.8 12.8-6.4 19.2-6.4 9.6-1.6 19.2 3.2 25.6 11.2zM595.2 249.6c-14.4 11.2-33.6 9.6-44.8-4.8l-25.6-32c-11.2-14.4-9.6-33.6 4.8-44.8 6.4-4.8 12.8-6.4 19.2-6.4 9.6 0 19.2 4.8 25.6 12.8l25.6 32c11.2 11.2 9.6 32-4.8 43.2zM542.4-57.6c6.4-4.8 12.8-6.4 19.2-6.4 9.6 0 19.2 4.8 25.6 12.8l67.2 83.2c11.2 14.4 9.6 33.6-4.8 44.8s-33.6 9.6-44.8-4.8l-67.2-83.2c-11.2-14.4-8-35.2 4.8-46.4zM705.6 113.6c9.6 0 19.2 4.8 25.6 12.8l62.4 78.4c11.2 14.4 9.6 33.6-4.8 44.8s-33.6 9.6-44.8-4.8l-62.4-78.4c-11.2-14.4-9.6-33.6 4.8-44.8 4.8-4.8 12.8-8 19.2-8z" />
<glyph unicode="&#xe950;" glyph-name="heavy-rain-day-f" horiz-adv-x="960" d="M339.2 185.6c-14.4 11.2-33.6 9.6-44.8-4.8l-72-91.2c-11.2-14.4-9.6-33.6 4.8-44.8 6.4-4.8 12.8-6.4 19.2-6.4 9.6 0 19.2 4.8 25.6 12.8l72 91.2c12.8 11.2 9.6 32-4.8 43.2zM499.2 185.6c-14.4 11.2-33.6 9.6-44.8-4.8l-153.6-192c-11.2-14.4-9.6-33.6 4.8-44.8 6.4-4.8 12.8-6.4 19.2-6.4 9.6 0 19.2 4.8 25.6 12.8l153.6 192c12.8 11.2 9.6 32-4.8 43.2zM659.2 185.6c-14.4 11.2-33.6 9.6-44.8-4.8l-72-91.2c-11.2-14.4-9.6-33.6 4.8-44.8 6.4-4.8 12.8-6.4 19.2-6.4 9.6 0 19.2 4.8 25.6 12.8l72 91.2c12.8 11.2 9.6 32-4.8 43.2zM819.2 185.6c-14.4 11.2-33.6 9.6-44.8-4.8l-153.6-192c-11.2-14.4-9.6-33.6 4.8-44.8 6.4-4.8 12.8-6.4 19.2-6.4 9.6 0 19.2 4.8 25.6 12.8l153.6 192c12.8 11.2 9.6 32-4.8 43.2zM352 816c17.6 0 32 14.4 32 32v80c0 17.6-14.4 32-32 32s-32-14.4-32-32v-80c0-17.6 14.4-32 32-32zM144 608c0 17.6-14.4 32-32 32h-80c-17.6 0-32-14.4-32-32s14.4-32 32-32h80c17.6 0 32 14.4 32 32zM164.8 750.4c6.4-6.4 14.4-9.6 22.4-9.6s16 3.2 22.4 9.6c12.8 12.8 12.8 32 0 44.8l-51.2 52.8c-12.8 12.8-32 12.8-44.8 0s-12.8-32 0-44.8l51.2-52.8zM516.8 740.8c8 0 16 3.2 22.4 9.6l52.8 51.2c12.8 12.8 12.8 32 0 44.8s-32 12.8-44.8 0l-52.8-52.8c-12.8-12.8-12.8-32 0-44.8 6.4-4.8 14.4-8 22.4-8zM209.6 465.6c-12.8 12.8-32 12.8-44.8 0l-52.8-52.8c-12.8-12.8-12.8-32 0-44.8 6.4-6.4 14.4-9.6 22.4-9.6s16 3.2 22.4 9.6l52.8 52.8c12.8 11.2 12.8 32 0 44.8zM800 576c-32 75.2-105.6 128-192 128-110.4 0-200-84.8-208-193.6-4.8 1.6-9.6 1.6-16 1.6-70.4 0-128-57.6-128-128s57.6-128 128-128h416c88 0 160 72 160 160s-72 160-160 160zM232 502.4c28.8 35.2 68.8 62.4 115.2 70.4 19.2 64 59.2 116.8 113.6 152-28.8 27.2-67.2 43.2-108.8 43.2-88 0-160-72-160-160 0-41.6 16-78.4 40-105.6z" />
<glyph unicode="&#xe951;" glyph-name="heavy-rain-day" horiz-adv-x="992" d="M320 928v-64c0-17.6 14.4-32 32-32s32 14.4 32 32v64c0 17.6-14.4 32-32 32s-32-14.4-32-32zM32 576h64c17.6 0 32 14.4 32 32s-14.4 32-32 32h-64c-17.6 0-32-14.4-32-32s14.4-32 32-32zM112 801.6l36.8-36.8c6.4-6.4 14.4-9.6 22.4-9.6s16 3.2 22.4 9.6c12.8 12.8 12.8 32 0 44.8l-35.2 38.4c-12.8 12.8-32 12.8-44.8 0-14.4-12.8-14.4-33.6-1.6-46.4zM547.2 848l-36.8-36.8c-12.8-12.8-12.8-32 0-44.8 6.4-6.4 14.4-9.6 22.4-9.6s16 3.2 22.4 9.6l36.8 35.2c12.8 12.8 12.8 32 0 44.8s-33.6 12.8-44.8 1.6zM148.8 449.6l-36.8-36.8c-12.8-12.8-12.8-32 0-44.8 6.4-6.4 14.4-9.6 22.4-9.6s16 3.2 22.4 9.6l36.8 36.8c12.8 12.8 12.8 32 0 44.8s-32 12.8-44.8 0zM820.8 606.4c-40 80-121.6 129.6-212.8 129.6-35.2 0-67.2-8-97.6-20.8-35.2 52.8-94.4 84.8-158.4 84.8-105.6 0-192-86.4-192-192 0-62.4 30.4-120 80-155.2-9.6-20.8-16-43.2-16-68.8 0-88 72-160 160-160h416c105.6 0 192 86.4 192 192 0 99.2-75.2 180.8-171.2 190.4zM224 608c0 70.4 57.6 128 128 128 41.6 0 80-20.8 104-54.4-41.6-33.6-72-83.2-83.2-137.6-36.8-3.2-68.8-17.6-96-40-32 24-52.8 62.4-52.8 104zM800 288h-416c-52.8 0-96 43.2-96 96s43.2 96 96 96c3.2 0 6.4 0 9.6-1.6l36.8-4.8 1.6 33.6c8 92.8 84.8 164.8 176 164.8 72 0 134.4-43.2 163.2-108.8l8-19.2h20.8c70.4 0 128-57.6 128-128s-57.6-128-128-128zM340.8 185.6c-14.4 11.2-33.6 9.6-44.8-4.8l-72-91.2c-11.2-14.4-9.6-33.6 4.8-44.8 6.4-4.8 12.8-6.4 19.2-6.4 9.6 0 19.2 4.8 25.6 12.8l72 91.2c11.2 11.2 8 32-4.8 43.2zM305.6-57.6c6.4-4.8 12.8-6.4 19.2-6.4 9.6 0 19.2 4.8 25.6 12.8l153.6 192c11.2 14.4 9.6 33.6-4.8 44.8s-33.6 9.6-44.8-4.8l-153.6-192c-11.2-14.4-8-35.2 4.8-46.4zM660.8 185.6c-14.4 11.2-33.6 9.6-44.8-4.8l-72-91.2c-11.2-14.4-9.6-33.6 4.8-44.8 6.4-4.8 12.8-6.4 19.2-6.4 9.6 0 19.2 4.8 25.6 12.8l72 91.2c11.2 11.2 8 32-4.8 43.2zM625.6-57.6c6.4-4.8 12.8-6.4 19.2-6.4 9.6 0 19.2 4.8 25.6 12.8l153.6 192c11.2 14.4 9.6 33.6-4.8 44.8s-33.6 9.6-44.8-4.8l-153.6-192c-11.2-14.4-8-35.2 4.8-46.4z" />
</font>
</defs>
</svg>
